<?xml version="1.0" standalone="no"?>
<!DOCTYPE svg PUBLIC "-//W3C//DTD SVG 1.1//EN" "http://www.w3.org/Graphics/SVG/1.1/DTD/svg11.dtd" >
<svg xmlns="http://www.w3.org/2000/svg">
<metadata>
<json>
<![CDATA[
{
	"fontFamily": "iconserchline",
	"majorVersion": 2,
	"minorVersion": 2,
	"copyright": "Those Icons",
	"fontURL": "https://thoseicons.com",
	"description": "Those Icons Line Set\nFont generated by IcoMoon.",
	"designer": "Meder Alpar",
	"license": "Royalyr Free License",
	"licenseURL": "https://thoseicons.com/license-agreement/",
	"version": "Version 2.2",
	"fontId": "iconserchline",
	"psName": "iconserchline",
	"subFamily": "Regular",
	"fullName": "iconserchline"
}
]]>
</json>
</metadata>
<defs>
<font id="iconserchline" horiz-adv-x="1024">
<font-face units-per-em="1024" ascent="960" descent="-64" />
<missing-glyph horiz-adv-x="1024" />
<glyph unicode="&#x20;" horiz-adv-x="512" d="" />
<glyph unicode="&#xe900;" glyph-name="in-1-Laptop" data-tags="in 1 Laptop" d="M874.667 469.334h-725.333c-35.292 0-64-28.708-64-64v-426.667c0-35.292 28.708-64 64-64h725.333c35.292 0 64 28.708 64 64v426.667c0 35.292-28.708 64-64 64zM576-21.333h-128c-11.792 0-21.333-9.542-21.333-21.333h-42.667v128h256v-128h-42.667c0 11.792-9.542 21.333-21.333 21.333zM896-21.333c0-11.75-9.583-21.333-21.333-21.333h-192v149.333c0 11.792-9.542 21.333-21.333 21.333h-298.667c-11.792 0-21.333-9.542-21.333-21.333v-149.333h-192c-11.75 0-21.333 9.583-21.333 21.333v426.667c0 11.75 9.583 21.333 21.333 21.333h725.333c11.75 0 21.333-9.583 21.333-21.333v-426.667zM927.833 938.667h-831.667c-53.042 0-96.167-43.125-96.167-96.167 0-8.958 1.25-17.875 3.708-26.458l69.208-242.125c10.375-36.458 44.125-61.917 82.042-61.917h714.083c37.917 0 71.667 25.458 82.042 61.875l69.208 242.167c2.458 8.583 3.708 17.5 3.708 26.458 0 53.042-43.125 96.167-96.167 96.167zM979.292 827.792l-69.208-242.208c-5.208-18.208-22.084-30.917-41.042-30.917h-714.083c-18.959 0-35.833 12.708-41.042 30.958l-69.208 242.167c-1.333 4.75-2.042 9.708-2.042 14.708 0 29.5 23.999 53.5 53.5 53.5h831.667c29.499 0 53.5-24 53.5-53.5 0-5-0.708-9.958-2.042-14.708zM597.333 213.334h-170.667c-11.792 0-21.333-9.542-21.333-21.333s9.542-21.333 21.333-21.333h170.667c11.792 0 21.333 9.542 21.333 21.333s-9.542 21.333-21.333 21.333zM256 213.334h-64c-11.792 0-21.333-9.542-21.333-21.333s9.542-21.333 21.333-21.333h64c11.792 0 21.333 9.542 21.333 21.333s-9.542 21.333-21.333 21.333zM362.667 213.334h-42.667c-11.792 0-21.333-9.542-21.333-21.333s9.542-21.333 21.333-21.333h42.667c11.792 0 21.333 9.542 21.333 21.333s-9.542 21.333-21.333 21.333zM256 298.667h-64c-11.792 0-21.333-9.542-21.333-21.333s9.542-21.333 21.333-21.333h64c11.792 0 21.333 9.542 21.333 21.333s-9.542 21.333-21.333 21.333zM725.333 213.334h-64c-11.792 0-21.333-9.542-21.333-21.333s9.542-21.333 21.333-21.333h64c11.792 0 21.333 9.542 21.333 21.333s-9.542 21.333-21.333 21.333zM832 213.334h-42.667c-11.792 0-21.333-9.542-21.333-21.333s9.542-21.333 21.333-21.333h42.667c11.792 0 21.333 9.542 21.333 21.333s-9.542 21.333-21.333 21.333zM832 298.667h-64c-11.792 0-21.333-9.542-21.333-21.333s9.542-21.333 21.333-21.333h64c11.792 0 21.333 9.542 21.333 21.333s-9.542 21.333-21.333 21.333zM192 341.334h42.667c11.792 0 21.333 9.542 21.333 21.333s-9.542 21.333-21.333 21.333h-42.667c-11.792 0-21.333-9.542-21.333-21.333s9.542-21.333 21.333-21.333zM832 384h-21.333c-11.792 0-21.333-9.542-21.333-21.333s9.542-21.333 21.333-21.333h21.333c11.792 0 21.333 9.542 21.333 21.333s-9.542 21.333-21.333 21.333zM320 362.667c0-11.782-9.551-21.333-21.333-21.333s-21.333 9.551-21.333 21.333c0 11.782 9.551 21.333 21.333 21.333s21.333-9.551 21.333-21.333zM384 362.667c0-11.782-9.551-21.333-21.333-21.333s-21.333 9.551-21.333 21.333c0 11.782 9.551 21.333 21.333 21.333s21.333-9.551 21.333-21.333zM448 362.667c0-11.782-9.551-21.333-21.333-21.333s-21.333 9.551-21.333 21.333c0 11.782 9.551 21.333 21.333 21.333s21.333-9.551 21.333-21.333zM512 362.667c0-11.782-9.551-21.333-21.333-21.333s-21.333 9.551-21.333 21.333c0 11.782 9.551 21.333 21.333 21.333s21.333-9.551 21.333-21.333zM576 362.667c0-11.782-9.551-21.333-21.333-21.333s-21.333 9.551-21.333 21.333c0 11.782 9.551 21.333 21.333 21.333s21.333-9.551 21.333-21.333zM640 362.667c0-11.782-9.551-21.333-21.333-21.333s-21.333 9.551-21.333 21.333c0 11.782 9.551 21.333 21.333 21.333s21.333-9.551 21.333-21.333zM704 362.667c0-11.782-9.551-21.333-21.333-21.333s-21.333 9.551-21.333 21.333c0 11.782 9.551 21.333 21.333 21.333s21.333-9.551 21.333-21.333zM768 362.667c0-11.782-9.551-21.333-21.333-21.333s-21.333 9.551-21.333 21.333c0 11.782 9.551 21.333 21.333 21.333s21.333-9.551 21.333-21.333zM341.333 277.334c0-11.782-9.551-21.333-21.333-21.333s-21.333 9.551-21.333 21.333c0 11.782 9.551 21.333 21.333 21.333s21.333-9.551 21.333-21.333zM405.333 277.334c0-11.782-9.551-21.333-21.333-21.333s-21.333 9.551-21.333 21.333c0 11.782 9.551 21.333 21.333 21.333s21.333-9.551 21.333-21.333zM469.333 277.334c0-11.782-9.551-21.333-21.333-21.333s-21.333 9.551-21.333 21.333c0 11.782 9.551 21.333 21.333 21.333s21.333-9.551 21.333-21.333zM533.333 277.334c0-11.782-9.551-21.333-21.333-21.333s-21.333 9.551-21.333 21.333c0 11.782 9.551 21.333 21.333 21.333s21.333-9.551 21.333-21.333zM597.333 277.334c0-11.782-9.551-21.333-21.333-21.333s-21.333 9.551-21.333 21.333c0 11.782 9.551 21.333 21.333 21.333s21.333-9.551 21.333-21.333zM661.333 277.334c0-11.782-9.551-21.333-21.333-21.333s-21.333 9.551-21.333 21.333c0 11.782 9.551 21.333 21.333 21.333s21.333-9.551 21.333-21.333zM725.333 277.334c0-11.782-9.551-21.333-21.333-21.333s-21.333 9.551-21.333 21.333c0 11.782 9.551 21.333 21.333 21.333s21.333-9.551 21.333-21.333z" />
<glyph unicode="&#xe901;" glyph-name="checkout" data-tags="checkout" d="M938.667 810.667h-853.333c-47.042 0-85.333-38.271-85.333-85.333v-597.333c0-47.062 38.292-85.333 85.333-85.333h853.333c47.042 0 85.333 38.271 85.333 85.333v597.333c0 47.062-38.292 85.333-85.333 85.333zM981.333 128c0-23.521-19.125-42.667-42.667-42.667h-853.333c-23.542 0-42.667 19.146-42.667 42.667v597.333c0 23.521 19.125 42.667 42.667 42.667h853.333c23.542 0 42.667-19.146 42.667-42.667v-597.333zM695.065 481.735c-30.128 0-51.167-24.354-51.167-54.193v-0.445c0-29.839 21.464-54.628 51.609-54.628 30.125 0 51.159 24.349 51.159 54.19v0.432c0 29.846-21.456 54.643-51.602 54.643zM609.917 426.657v0.435c0 43.232 32.945 79.427 79.565 79.427 15.664 0.003 29.669-4.099 41.456-11.091-29.052 96.049-117.326 165.906-221.721 165.906-128.062 0-231.883-105.062-231.883-234.674 0-129.604 103.82-234.659 231.883-234.659 104.909 0 193.521 70.547 222.099 167.328-11.974-7.336-26.302-11.656-42.276-11.656-46.612 0-79.122 35.76-79.122 78.984zM455.729 350.308h-109.698v21.271l52.24 44.987c20.813 17.766 28.417 27.638 28.417 41.471 0 15.141-10.633 23.911-24.513 23.911-13.87 0-23.419-7.672-35.12-23.042l-18.867 14.924c14.531 20.638 28.839 32.25 55.938 32.25 29.711 0 50.083-18.432 50.083-45.854v-0.435c0-24.128-12.57-37.305-39.453-59.451l-31.237-26.346h72.211v-23.688zM549.708 372.469c15.633 0 26.523 5.445 37.31 14.424l17.768-17.589c-14.404-13.393-30.859-21.628-55.945-21.628-44.232 0-77.182 34.891-77.182 78.984v0.435c0 43.677 32.323 79.427 78.271 79.427 26.023-0.003 42.427-8.602 56.294-21.094l-18.779-18.56c-10.81 9.042-22.635 14.865-37.737 14.865-29.047 0-50.070-24.133-50.070-54.193v-0.445c0-30.057 21.023-54.628 50.070-54.628z" />
<glyph unicode="&#xe902;" glyph-name="by-3-Table" data-tags="by 3 Table" d="M960 896h-896c-11.792 0-21.333-9.542-21.333-21.333v-896c0-11.792 9.542-21.333 21.333-21.333h896c11.792 0 21.333 9.542 21.333 21.333v896c0 11.792-9.542 21.333-21.333 21.333zM938.667 597.334h-256v256h256v-256zM384 298.667v256h256v-256h-256zM640 256v-256h-256v256h256zM341.333 298.667h-256v256h256v-256zM384 597.334v256h256v-256h-256zM682.667 554.667h256v-256h-256v256zM341.333 853.334v-256h-256v256h256zM85.333 256h256v-256h-256v256zM682.667-0v256h256v-256h-256z" />
<glyph unicode="&#xe903;" glyph-name="Stars" data-tags="Stars" d="M645.851 400.646l108.417 92.938c11.917 10.208 16.667 26.5 12 41.542-4.625 14.979-17.708 25.792-33.292 27.521l-138.417 15.354-45.667 121.854c-5.792 15.229-20.583 25.479-36.875 25.479-16.333 0-31.167-10.292-36.833-25.542l-45.708-121.792-138.458-15.354c-15.625-1.75-28.667-12.583-33.208-27.542-4.667-15.083 0.083-31.396 12-41.5l108.375-92.938-31-139.521c-3.417-15.75 3.292-32.333 16.792-41.312 13.292-8.75 31.417-8.542 44.625 0.854l103.417 73.896 103.417-73.854c6.708-4.833 14.667-7.396 22.958-7.396 7.792 0 15.333 2.271 21.75 6.563 13.5 8.958 20.208 25.583 16.708 41.354l-31 139.396zM635.767 258.646l-111.333 79.5c-3.708 2.646-8.083 3.979-12.417 3.979s-8.708-1.333-12.417-3.979l-109.083-78.667 32.125 144.417c1.708 7.688-0.958 15.688-6.958 20.813l-112.375 96.375 143.875 15.958c8 0.896 14.833 6.187 17.625 13.708l47.208 125.833 47.208-125.813c2.792-7.542 9.625-12.833 17.625-13.729l143.917-15.979-112.417-96.333c-6-5.146-8.667-13.146-6.958-20.833l34.375-145.25zM312.184 365.75l-83.375 9.25-27.375 72.979c-4.75 12.771-17.125 21.354-30.75 21.354s-26-8.583-30.708-21.292l-27.417-73.042-83.333-9.25c-12.917-1.417-23.792-10.375-27.792-23-3.792-12.521 0.125-26.062 10.042-34.542l65.458-56.125-18.708-84.104c-2.917-13.167 2.667-27.042 13.917-34.5 11.208-7.417 26.458-7.104 37.25 0.646l61.292 43.792 61.25-43.75c5.625-4.042 12.25-6.167 19.167-6.167 6.458 0 12.708 1.896 18.125 5.479 11.25 7.458 16.833 21.333 13.917 34.458l-18.708 84.146 65.458 56.125c9.917 8.479 13.833 22.021 9.958 34.729-3.917 12.438-14.792 21.396-27.667 22.813zM226.934 276.167c-6-5.146-8.667-13.146-6.958-20.833l15.917-71.563-52.792 37.729c-3.708 2.646-8.083 3.979-12.417 3.979s-8.708-1.333-12.417-3.979l-52.792-37.729 15.917 71.563c1.708 7.688-0.958 15.688-6.958 20.833l-57.958 49.688 73.833 8.187c7.958 0.896 14.792 6.187 17.583 13.708l22.792 60.708 22.792-60.708c2.792-7.521 9.625-12.813 17.583-13.708l73.833-8.187-57.958-49.688zM1022.517 342.938c-3.917 12.437-14.792 21.396-27.667 22.813l-83.375 9.25-27.375 72.979c-4.75 12.771-17.125 21.354-30.75 21.354s-26-8.583-30.708-21.292l-27.417-73.042-83.333-9.25c-12.917-1.417-23.792-10.375-27.792-23-3.792-12.521 0.125-26.062 10.042-34.542l65.458-56.125-18.708-84.104c-2.917-13.167 2.667-27.042 13.917-34.5 11.208-7.417 26.458-7.104 37.25 0.646l61.292 43.792 61.25-43.75c5.625-4.042 12.25-6.167 19.167-6.167 6.458 0 12.708 1.896 18.125 5.479 11.25 7.458 16.833 21.333 13.917 34.458l-18.708 84.146 65.458 56.125c9.917 8.479 13.833 22.021 9.958 34.729zM909.601 276.167c-6-5.146-8.667-13.146-6.958-20.833l15.917-71.563-52.792 37.729c-3.708 2.646-8.083 3.979-12.417 3.979s-8.708-1.333-12.417-3.979l-52.792-37.729 15.917 71.563c1.708 7.688-0.958 15.688-6.958 20.833l-57.958 49.688 73.833 8.187c7.958 0.896 14.792 6.187 17.583 13.708l22.792 60.708 22.792-60.708c2.792-7.521 9.625-12.813 17.583-13.708l73.833-8.187-57.958-49.688z" />
<glyph unicode="&#xe904;" glyph-name="D-Axis" data-tags="D-Axis" d="M969.917 658.896l-448 234.667c-6.25 3.25-13.583 3.25-19.833 0l-448-234.667c-7-3.688-11.417-10.958-11.417-18.896v-426.667c0-7.938 4.417-15.208 11.417-18.896l448-234.667c3.125-1.625 6.5-2.437 9.917-2.437s6.792 0.813 9.917 2.437l448 234.667c7 3.688 11.417 10.958 11.417 18.896v426.667c0 7.938-4.417 15.208-11.417 18.896zM938.667 247.854l-378.958 189.479 112.336 56.169-10.086-40.336c-2.833-11.417 4.083-23 15.542-25.854 1.75-0.438 3.458-0.646 5.167-0.646 9.583 0 18.292 6.458 20.708 16.167l21.333 85.333c2.833 11.417-4.083 23-15.542 25.854l-85.333 21.333c-11.625 2.854-23.042-4.083-25.875-15.521-2.833-11.417 4.083-23 15.542-25.854l29.383-7.352-109.549-54.773v367.555l405.333-212.326v-379.229zM490.667 839.409v-367.555l-109.549 54.773 29.383 7.352c11.458 2.854 18.375 14.437 15.542 25.854-2.833 11.458-14.625 18.417-25.875 15.521l-85.333-21.333c-11.458-2.854-18.375-14.437-15.542-25.854l21.333-85.333c2.417-9.708 11.125-16.167 20.708-16.167 1.708 0 3.458 0.208 5.167 0.646 11.458 2.854 18.375 14.437 15.542 25.854l-10.086 40.336 112.336-56.169-378.958-189.479v379.229l405.333 212.326zM512 2.75l-401.169 210.143 379.836 189.919v-116.646l-27.583 27.583c-8.333 8.333-21.833 8.333-30.167 0s-8.333-21.833 0-30.167l64-64c4.167-4.167 9.625-6.25 15.083-6.25s10.917 2.083 15.083 6.25l64 64c8.333 8.333 8.333 21.833 0 30.167s-21.833 8.333-30.167 0l-27.583-27.583v116.646l379.836-189.919-401.169-210.143z" />
<glyph unicode="&#xe905;" glyph-name="D-File" data-tags="D-File" d="M725.229 214.594c-0.211 7.737-2.865 18.612-12.388 29.88l-181.57 383.318c-7.042 14.917-31.5 14.917-38.542 0l-181.57-383.318c-9.523-11.268-12.177-22.143-12.388-29.88-0.010-0.203-0.044-0.401-0.049-0.607-0.003-0.201-0.055-0.458-0.055-0.654 0-58.625 110.583-85.333 213.333-85.333s213.333 26.708 213.333 85.333c0 0.195-0.052 0.453-0.055 0.654-0.005 0.206-0.039 0.404-0.049 0.607zM512 170.667c-105.773 0-163.323 28.089-169.453 40.458l169.453 357.708 169.453-357.708c-6.13-12.37-63.68-40.458-169.453-40.458zM602.896 291.375c-11.479 1.958-23.583 3.563-36.187 4.75-11.813 1.292-22.146-7.479-23.25-19.208-1.125-11.729 7.479-22.146 19.208-23.25 11.521-1.104 22.583-2.542 33.063-4.333 1.208-0.208 2.417-0.312 3.604-0.312 10.208 0 19.229 7.354 21 17.75 2 11.604-5.813 22.625-17.438 24.604zM458 296.209c-12.625-1.187-24.729-2.771-36.229-4.708-11.625-1.958-19.458-12.979-17.5-24.583 1.771-10.417 10.792-17.792 21.021-17.792 1.167 0 2.375 0.104 3.563 0.292 10.5 1.771 21.563 3.229 33.104 4.292 11.729 1.104 20.354 11.5 19.271 23.229-1.104 11.729-11.5 20.375-23.229 19.271zM889.75 719.084l-213.333 213.333c-4 4-9.417 6.25-15.083 6.25h-448c-47.062 0-85.333-38.271-85.333-85.333v-853.333c0-47.062 38.271-85.333 85.333-85.333h597.333c47.062 0 85.333 38.271 85.333 85.333v704c0 5.667-2.25 11.083-6.25 15.083zM682.667 865.834l140.5-140.5h-97.833c-23.521 0-42.667 19.146-42.667 42.667v97.833zM853.333-0c0-23.521-19.146-42.667-42.667-42.667h-597.333c-23.521 0-42.667 19.146-42.667 42.667v853.333c0 23.521 19.146 42.667 42.667 42.667h426.667v-128c0-47.062 38.271-85.333 85.333-85.333h128v-682.667z" />
<glyph unicode="&#xe906;" glyph-name="d-Glasses" data-tags="d-Glasses" d="M1009.057 383.805l-201.474 292.435c-17.5 27.208-47.271 43.458-79.604 43.458-36.083 0-68.521-20.042-85.229-53.479-4.042-8.229-2.917-19.167 3.583-25.625 5.75-5.708 14.187-7.708 21.792-5.125 23.979 8.167 50.25-5.042 58.708-30.312l73.654-184.125h-576.979l74.096 185.292c3.875 11.688 12.083 21.146 23.083 26.646 11.042 5.521 23.542 6.354 35.229 2.5 8.229-2.813 16.708 0.771 22.333 7.333 5.646 6.5 6.292 16.854 2.437 24.583-16.146 32.271-48.583 52.312-84.667 52.312-32.333 0-62.104-16.25-79.229-42.896l-201.849-292.997c-9.398-13.711-14.943-30.26-14.943-48.107v-213.333c0-47.062 38.271-85.333 85.333-85.333h256c43.208 0 81.854 25.771 98.458 65.646l32.813 78.771c6.646 15.938 22.125 26.25 39.396 26.25s32.75-10.312 39.396-26.25l32.813-78.771c16.604-39.875 55.25-65.646 98.458-65.646h256c47.062 0 85.333 38.271 85.333 85.333v213.333c0 17.846-5.544 34.396-14.943 48.107zM766.896 619.823c-7.5 22.5-23.312 40.729-44.521 51.312-2.917 1.458-5.875 2.75-8.896 3.875 21.146 6.021 45.792-2.521 58.604-22.417l159.526-231.563h-85.167l-79.547 198.792zM252.292 653.157c12.333 19.167 37.062 28.021 58.187 21.833-3-1.104-5.958-2.396-8.875-3.854-21.187-10.604-37-28.833-44.062-50.146l-79.987-199.958h-85.167l159.904 232.125zM981.333 122.365c0-23.521-19.146-42.667-42.667-42.667h-256c-25.917 0-49.104 15.458-59.083 39.396l-32.813 78.771c-13.292 31.896-44.208 52.5-78.771 52.5s-65.479-20.604-78.771-52.5l-32.813-78.771c-9.979-23.937-33.167-39.396-59.083-39.396h-256c-23.521 0-42.667 19.146-42.667 42.667v213.333c0 23.521 19.146 42.667 42.667 42.667h853.333c23.521 0 42.667-19.146 42.667-42.667v-213.333zM405.333 335.698h-298.667c-11.792 0-21.333-9.542-21.333-21.333v-170.667c0-11.792 9.542-21.333 21.333-21.333h213.333c8.083 0 15.458 4.563 19.083 11.792l85.333 170.667c3.312 6.604 2.958 14.458-0.938 20.75s-10.75 10.125-18.146 10.125zM306.813 165.032h-178.813v128h242.813l-64-128zM917.333 335.698h-298.667c-7.396 0-14.25-3.833-18.146-10.125s-4.25-14.146-0.938-20.75l85.333-170.667c3.625-7.229 11-11.792 19.083-11.792h213.333c11.792 0 21.333 9.542 21.333 21.333v170.667c0 11.792-9.542 21.333-21.333 21.333zM896 165.032h-178.813l-64 128h242.813v-128z" />
<glyph unicode="&#xe907;" glyph-name="DS-File" data-tags="DS-File" d="M960 469.334h-149.333v234.667c0 5.667-2.25 11.083-6.25 15.083l-213.333 213.333c-4 4-9.417 6.25-15.083 6.25h-448c-47.062 0-85.333-38.271-85.333-85.333v-853.333c0-47.062 38.271-85.333 85.333-85.333h597.333c47.062 0 85.333 38.271 85.333 85.333v85.333h149.333c11.792 0 21.333 9.542 21.333 21.333v341.333c0 11.792-9.542 21.333-21.333 21.333zM597.333 865.834l140.5-140.5h-97.833c-23.521 0-42.667 19.146-42.667 42.667v97.833zM768-0c0-23.521-19.146-42.667-42.667-42.667h-597.333c-23.521 0-42.667 19.146-42.667 42.667v853.333c0 23.521 19.146 42.667 42.667 42.667h426.667v-128c0-47.062 38.271-85.333 85.333-85.333h128v-213.333h-490.667c-11.792 0-21.333-9.542-21.333-21.333v-341.333c0-11.792 9.542-21.333 21.333-21.333h490.667v-85.333zM938.667 128h-640v298.667h640v-298.667zM448 213.334h-42.667c-11.792 0-21.333-9.542-21.333-21.333s9.542-21.333 21.333-21.333h42.667c35.292 0 64 28.708 64 64 0 16.375-6.187 31.333-16.333 42.667 10.146 11.333 16.333 26.292 16.333 42.667 0 35.292-28.708 64-64 64h-42.667c-11.792 0-21.333-9.542-21.333-21.333s9.542-21.333 21.333-21.333h42.667c11.771 0 21.333-9.563 21.333-21.333s-9.563-21.333-21.333-21.333h-21.333c-11.792 0-21.333-9.542-21.333-21.333s9.542-21.333 21.333-21.333h21.333c11.771 0 21.333-9.563 21.333-21.333s-9.563-21.333-21.333-21.333zM789.333 213.334h-42.667c-11.792 0-21.333-9.542-21.333-21.333s9.542-21.333 21.333-21.333h42.667c35.292 0 64 28.708 64 64s-28.708 64-64 64c-11.771 0-21.333 9.563-21.333 21.333s9.563 21.333 21.333 21.333h42.667c11.792 0 21.333 9.542 21.333 21.333s-9.542 21.333-21.333 21.333h-42.667c-35.292 0-64-28.708-64-64s28.708-64 64-64c11.771 0 21.333-9.563 21.333-21.333s-9.563-21.333-21.333-21.333zM576 170.667h42.667c35.292 0 64 28.708 64 64v85.333c0 35.292-28.708 64-64 64h-42.667c-11.792 0-21.333-9.542-21.333-21.333v-170.667c0-11.792 9.542-21.333 21.333-21.333zM597.333 341.334h21.333c11.771 0 21.333-9.563 21.333-21.333v-85.333c0-11.771-9.563-21.333-21.333-21.333h-21.333v128z" />
<glyph unicode="&#xe908;" glyph-name="G-signal" data-tags="G-signal" d="M968.162 894.371c-7.958 3.333-17.167 1.458-23.25-4.625l-896-896c-6.083-6.104-7.917-15.271-4.625-23.25s11.083-13.167 19.708-13.167h896c11.792 0 21.333 9.542 21.333 21.333v896c0 8.625-5.208 16.417-13.167 19.708zM554.662 439.162l170.667 170.667v-609.833h-170.667v439.167zM511.995-0.004h-170.667v225.833l170.667 170.667v-396.5zM298.662 183.162v-183.167h-183.167l183.167 183.167zM938.662-0.004h-170.667v652.5l170.667 170.667v-823.167zM213.329 554.662h-64c-11.792 0-21.333-9.542-21.333-21.333s9.542-21.333 21.333-21.333h64c47.042 0 85.333 38.271 85.333 85.333 0 25.458-11.208 48.354-28.958 64 17.75 15.646 28.958 38.542 28.958 64 0 47.062-38.292 85.333-85.333 85.333h-64c-11.792 0-21.333-9.542-21.333-21.333s9.542-21.333 21.333-21.333h64c23.542 0 42.667-19.146 42.667-42.667s-19.125-42.667-42.667-42.667h-21.333c-11.792 0-21.333-9.542-21.333-21.333s9.542-21.333 21.333-21.333h21.333c23.542 0 42.667-19.146 42.667-42.667s-19.125-42.667-42.667-42.667zM426.662 511.996c47.042 0 85.333 38.271 85.333 85.333v42.667c0 11.792-9.542 21.333-21.333 21.333h-42.667c-11.792 0-21.333-9.542-21.333-21.333s9.542-21.333 21.333-21.333h21.333v-21.333c0-23.521-19.125-42.667-42.667-42.667s-42.667 19.146-42.667 42.667v128c0 23.521 19.125 42.667 42.667 42.667s42.667-19.146 42.667-42.667c0-11.792 9.542-21.333 21.333-21.333s21.333 9.542 21.333 21.333c0 47.062-38.292 85.333-85.333 85.333s-85.333-38.271-85.333-85.333v-128c0-47.062 38.292-85.333 85.333-85.333z" />
<glyph unicode="&#xe909;" glyph-name="G-Signal" data-tags="G-Signal" d="M968.162 894.371c-7.917 3.333-17.125 1.458-23.25-4.625l-896-896c-6.083-6.104-7.917-15.271-4.625-23.25s11.083-13.167 19.708-13.167h896c11.792 0 21.333 9.542 21.333 21.333v896c0 8.625-5.208 16.417-13.167 19.708zM554.662 439.162l170.667 170.667v-609.833h-170.667v439.167zM511.995-0.004h-170.667v225.833l170.667 170.667v-396.5zM298.662 183.162v-183.167h-183.167l183.167 183.167zM938.662-0.004h-170.667v652.5l170.667 170.667v-823.167zM426.662 511.996c47.042 0 85.333 38.271 85.333 85.333v42.667c0 11.792-9.542 21.333-21.333 21.333h-42.667c-11.792 0-21.333-9.542-21.333-21.333s9.542-21.333 21.333-21.333h21.333v-21.333c0-23.521-19.125-42.667-42.667-42.667s-42.667 19.146-42.667 42.667v128c0 23.521 19.125 42.667 42.667 42.667s42.667-19.146 42.667-42.667c0-11.792 9.542-21.333 21.333-21.333s21.333 9.542 21.333 21.333c0 47.062-38.292 85.333-85.333 85.333s-85.333-38.271-85.333-85.333v-128c0-47.062 38.292-85.333 85.333-85.333zM149.329 597.329h106.646l0.021-64c0-11.792 9.542-21.333 21.333-21.333s21.333 9.563 21.333 21.333l-0.042 128.063c0 11.792-9.542 21.333-21.333 21.333s-21.333-9.563-21.333-21.333l0.008-21.396h-72.133l69.917 139.792c5.25 10.542 1 23.354-9.542 28.625-10.5 5.187-23.333 1.021-28.625-9.542l-85.333-170.667c-3.292-6.604-2.958-14.458 0.917-20.75 3.917-6.292 10.792-10.125 18.167-10.125z" />
<glyph unicode="&#xe90a;" glyph-name="Stars2" data-tags="Stars" d="M592.421 597.334c6.458 0 12.708 1.896 18.125 5.479 11.25 7.458 16.833 21.333 13.917 34.458l-18.708 84.146 65.458 56.125c9.917 8.479 13.833 22.021 10.042 34.563-3.833 12.521-14.75 21.542-27.75 22.979l-83.375 9.25-27.375 72.979c-4.75 12.771-17.125 21.354-30.75 21.354-13.5 0-25.833-8.521-30.708-21.292l-27.417-73.042-83.333-9.25c-13-1.437-23.875-10.458-27.667-22.833-4-12.604-0.042-26.271 9.958-34.688l65.458-56.125-18.75-84.125c-2.917-13.167 2.667-27.042 13.917-34.5 11.208-7.417 26.417-7.104 37.25 0.646l61.292 43.813 61.292-43.771c5.625-4.042 12.208-6.167 19.125-6.167zM499.588 690.834l-52.792-37.729 15.917 71.563c1.708 7.688-0.958 15.688-6.958 20.813l-57.958 49.708 73.833 8.187c7.958 0.896 14.792 6.187 17.583 13.708l22.792 60.708 22.792-60.708c2.792-7.521 9.625-12.813 17.583-13.708l73.833-8.187-57.958-49.688c-6-5.146-8.667-13.146-6.958-20.833l15.917-71.542-52.792 37.708c-7.417 5.292-17.417 5.292-24.833 0zM440.171 152.417l-83.375 9.25-27.458 73.146c-4.833 12.667-17.167 21.187-30.667 21.187-13.625 0-26-8.583-30.708-21.292l-27.417-73.042-83.333-9.25c-12.917-1.417-23.792-10.375-27.792-23-3.792-12.521 0.125-26.062 10.042-34.542l65.458-56.125-18.708-84.104c-2.917-13.167 2.667-27.042 13.917-34.5 11.208-7.437 26.958-6.875 37.208 0.646l61.334 43.813 61.25-43.771c5.625-4.042 12.25-6.167 19.167-6.167 6.458 0 12.708 1.896 18.125 5.479 11.25 7.458 16.833 21.333 13.917 34.458l-18.75 84.167 65.375 56.021c10.083 8.521 14.042 22.187 10.125 34.646-3.875 12.521-14.75 21.542-27.708 22.979zM354.921 62.813c-6-5.125-8.667-13.125-6.958-20.813l15.917-71.563-52.792 37.729c-3.708 2.646-8.083 3.979-12.417 3.979s-8.708-1.333-12.417-3.979l-52.792-37.708 15.917 71.542c1.708 7.688-0.958 15.688-6.958 20.833l-57.958 49.688 73.833 8.187c7.958 0.896 14.792 6.187 17.583 13.708l22.792 60.708 22.792-60.708c2.792-7.521 9.625-12.813 17.583-13.708l73.833-8.187-57.958-49.708zM866.864 152.417l-83.375 9.25-27.375 72.979c-4.75 12.771-17.125 21.354-30.75 21.354-13.5 0-25.833-8.521-30.708-21.292l-27.417-73.042-83.333-9.25c-13-1.437-23.875-10.458-27.667-22.833-4-12.604-0.042-26.271 9.958-34.688l65.458-56.125-18.75-84.125c-2.917-13.167 2.667-27.042 13.917-34.5 11.25-7.437 26.458-7.083 37.25 0.646l61.292 43.813 61.125-43.646c5.5-4.062 12.375-6.292 19.292-6.292 6.458 0 12.708 1.896 18.125 5.479 11.25 7.458 16.833 21.333 13.917 34.458l-18.708 84.146 65.458 56.125c9.917 8.479 13.833 22.021 9.958 34.729-3.917 12.437-14.792 21.396-27.667 22.812zM781.614 62.834c-6-5.146-8.667-13.146-6.958-20.833l15.917-71.542-52.792 37.708c-7.417 5.292-17.417 5.292-24.833 0l-52.792-37.729 15.917 71.563c1.708 7.688-0.958 15.688-6.958 20.813l-57.958 49.708 73.833 8.187c7.958 0.896 14.792 6.187 17.583 13.708l22.792 60.708 22.792-60.708c2.792-7.521 9.625-12.813 17.583-13.708l73.833-8.187-57.958-49.688zM231.921 326.167c5.625-4.042 12.25-6.167 19.167-6.167 6.458 0 12.708 1.896 18.125 5.479 11.25 7.458 16.833 21.333 13.917 34.458l-18.75 84.167 65.375 56.021c10.083 8.521 14.042 22.187 10.125 34.646-3.875 12.521-14.75 21.542-27.708 22.979l-83.375 9.25-27.458 73.146c-4.833 12.667-17.167 21.187-30.667 21.187-13.625 0-26-8.583-30.708-21.292l-27.417-73.042-83.333-9.25c-12.917-1.417-23.792-10.375-27.792-23-3.792-12.521 0.125-26.062 10.042-34.542l65.458-56.125-18.708-84.104c-2.917-13.167 2.667-27.042 13.917-34.5 11.25-7.417 26.958-6.896 37.208 0.646l61.334 43.813 61.25-43.771zM105.463 375.792l15.917 71.542c1.708 7.688-0.958 15.688-6.958 20.833l-57.958 49.687 73.833 8.187c7.958 0.896 14.792 6.187 17.583 13.708l22.792 60.708 22.792-60.708c2.792-7.521 9.625-12.813 17.583-13.708l73.833-8.187-57.958-49.708c-6-5.125-8.667-13.125-6.958-20.813l15.917-71.563-52.792 37.729c-3.708 2.646-8.083 3.979-12.417 3.979s-8.708-1.333-12.417-3.979l-52.792-37.708zM1022.515 534.771c-3.875 12.521-14.75 21.542-27.708 22.979l-83.375 9.25-27.458 73.146c-4.833 12.667-17.167 21.187-30.667 21.187-13.625 0-26-8.583-30.708-21.292l-27.417-73.042-83.333-9.25c-12.917-1.417-23.792-10.375-27.792-23-3.792-12.521 0.125-26.062 10.042-34.542l65.458-56.125-18.708-84.104c-2.917-13.167 2.667-27.042 13.917-34.5 11.208-7.417 26.958-6.896 37.208 0.646l61.333 43.813 61.25-43.771c5.625-4.042 12.25-6.167 19.167-6.167 6.458 0 12.708 1.896 18.125 5.479 11.25 7.458 16.833 21.333 13.917 34.458l-18.75 84.167 65.375 56.021c10.083 8.521 14.042 22.187 10.125 34.646zM909.557 468.146c-6-5.125-8.667-13.125-6.958-20.813l15.917-71.563-52.792 37.729c-3.708 2.646-8.083 3.979-12.417 3.979s-8.708-1.333-12.417-3.979l-52.792-37.708 15.917 71.542c1.708 7.688-0.958 15.688-6.958 20.833l-57.958 49.688 73.833 8.187c7.958 0.896 14.792 6.187 17.583 13.708l22.792 60.708 22.792-60.708c2.792-7.521 9.625-12.813 17.583-13.708l73.833-8.187-57.958-49.708z" />
<glyph unicode="&#xe90b;" glyph-name="Minutes" data-tags="Minutes" d="M512 42.667c-11.792 0-21.333-9.542-21.333-21.333v-85.333c0-11.792 9.542-21.333 21.333-21.333s21.333 9.542 21.333 21.333v85.333c0 11.792-9.542 21.333-21.333 21.333zM285.125 862.271c-5.875 10.208-18.917 13.708-29.125 7.812s-13.708-18.937-7.792-29.146l21.333-36.958c3.917-6.833 11.125-10.667 18.458-10.667 3.625 0 7.292 0.917 10.667 2.854 10.208 5.896 13.708 18.938 7.792 29.146l-21.333 36.958zM754.458 49.355c-5.875 10.208-18.958 13.688-29.125 7.812-10.208-5.896-13.708-18.938-7.792-29.146l21.333-36.958c3.917-6.833 11.125-10.667 18.458-10.667 3.625 0 7.292 0.917 10.667 2.854 10.208 5.896 13.708 18.938 7.792 29.146l-21.333 36.958zM134.667 669.146l-36.917 21.333c-10.167 5.812-23.208 2.396-29.125-7.813-5.917-10.187-2.417-23.25 7.792-29.146l36.917-21.333c3.375-1.937 7.042-2.854 10.667-2.854 7.333 0 14.5 3.813 18.458 10.667 5.917 10.187 2.417 23.25-7.792 29.146zM947.583 199.813l-36.917 21.333c-10.125 5.833-23.208 2.396-29.125-7.813-5.917-10.187-2.417-23.25 7.792-29.146l36.917-21.333c3.375-1.938 7.042-2.854 10.667-2.854 7.333 0 14.5 3.813 18.458 10.667 5.917 10.187 2.417 23.25-7.792 29.146zM128 426.667c0 11.792-9.542 21.333-21.333 21.333h-85.333c-11.792 0-21.333-9.542-21.333-21.333s9.542-21.333 21.333-21.333h85.333c11.792 0 21.333 9.542 21.333 21.333zM113.333 221.146l-36.917-21.333c-10.208-5.896-13.708-18.958-7.792-29.146 3.958-6.854 11.125-10.667 18.458-10.667 3.625 0 7.333 0.917 10.667 2.854l36.917 21.333c10.208 5.896 13.708 18.958 7.792 29.146-5.917 10.25-19.083 13.708-29.125 7.813zM298.667 57.167c-10.167 5.813-23.25 2.375-29.125-7.813l-21.333-36.958c-5.917-10.208-2.417-23.25 7.792-29.146 3.375-1.938 7.042-2.854 10.667-2.854 7.333 0 14.542 3.833 18.458 10.667l21.333 36.958c5.917 10.208 2.417 23.25-7.792 29.146zM512 938.667c-11.792 0-21.333-9.542-21.333-21.333v-490.667c0-11.792 9.542-21.333 21.333-21.333h490.667c11.792 0 21.333 9.542 21.333 21.333 0 282.312-229.667 512-512 512zM533.333 448v447.521c241.833-10.875 436.625-205.688 447.542-447.521h-447.542z" />
<glyph unicode="&#xe90c;" glyph-name="Minutes2" data-tags="Minutes" d="M285.125 862.271c-5.875 10.208-18.958 13.708-29.125 7.812-10.208-5.896-13.708-18.937-7.792-29.146l21.333-36.958c3.917-6.833 11.125-10.667 18.458-10.667 3.625 0 7.292 0.917 10.667 2.854 10.208 5.896 13.708 18.938 7.792 29.146l-21.333 36.958zM134.667 669.146l-36.917 21.333c-10.125 5.812-23.167 2.396-29.125-7.813-5.917-10.187-2.417-23.25 7.792-29.146l36.917-21.333c3.375-1.937 7.042-2.854 10.667-2.854 7.333 0 14.5 3.813 18.458 10.667 5.917 10.187 2.417 23.25-7.792 29.146zM128 426.667c0 11.792-9.542 21.333-21.333 21.333h-85.333c-11.792 0-21.333-9.542-21.333-21.333s9.542-21.333 21.333-21.333h85.333c11.792 0 21.333 9.542 21.333 21.333zM113.333 221.146l-36.917-21.333c-10.208-5.896-13.708-18.958-7.792-29.146 3.958-6.854 11.125-10.667 18.458-10.667 3.625 0 7.333 0.917 10.667 2.854l36.917 21.333c10.208 5.896 13.708 18.958 7.792 29.146-5.917 10.25-19.083 13.708-29.125 7.813zM298.667 57.167c-10.167 5.813-23.25 2.375-29.125-7.813l-21.333-36.958c-5.917-10.208-2.417-23.25 7.792-29.146 3.375-1.938 7.042-2.854 10.667-2.854 7.333 0 14.542 3.833 18.458 10.667l21.333 36.958c5.917 10.208 2.417 23.25-7.792 29.146zM512 938.667c-11.792 0-21.333-9.542-21.333-21.333v-981.333c0-11.792 9.542-21.333 21.333-21.333 282.333 0 512 229.688 512 512s-229.667 512-512 512zM533.333-42.187v937.708c248.917-11.208 448-217.208 448-468.854s-199.083-457.646-448-468.854z" />
<glyph unicode="&#xe90d;" glyph-name="bit-CPU" data-tags="bit-CPU" d="M960 533.334c11.792 0 21.333 9.542 21.333 21.333s-9.542 21.333-21.333 21.333h-64v85.333h64c11.792 0 21.333 9.542 21.333 21.333s-9.542 21.333-21.333 21.333h-64v21.333c0 47.042-38.271 85.333-85.333 85.333h-21.333v64c0 11.792-9.542 21.333-21.333 21.333s-21.333-9.542-21.333-21.333v-64h-85.333v64c0 11.792-9.542 21.333-21.333 21.333s-21.333-9.542-21.333-21.333v-64h-85.333v64c0 11.792-9.542 21.333-21.333 21.333s-21.333-9.542-21.333-21.333v-64h-85.333v64c0 11.792-9.542 21.333-21.333 21.333s-21.333-9.542-21.333-21.333v-64h-85.333v64c0 11.792-9.542 21.333-21.333 21.333s-21.333-9.542-21.333-21.333v-64h-21.333c-47.062 0-85.333-38.292-85.333-85.333v-21.333h-64c-11.792 0-21.333-9.542-21.333-21.333s9.542-21.333 21.333-21.333h64v-85.333h-64c-11.792 0-21.333-9.542-21.333-21.333s9.542-21.333 21.333-21.333h64v-85.333h-64c-11.792 0-21.333-9.542-21.333-21.333s9.542-21.333 21.333-21.333h64v-85.333h-64c-11.792 0-21.333-9.542-21.333-21.333s9.542-21.333 21.333-21.333h64v-85.333h-64c-11.792 0-21.333-9.542-21.333-21.333s9.542-21.333 21.333-21.333h64v-21.333c0-47.042 38.271-85.333 85.333-85.333h21.333v-64c0-11.792 9.542-21.333 21.333-21.333s21.333 9.542 21.333 21.333v64h85.333v-64c0-11.792 9.542-21.333 21.333-21.333s21.333 9.542 21.333 21.333v64h85.333v-64c0-11.792 9.542-21.333 21.333-21.333s21.333 9.542 21.333 21.333v64h85.333v-64c0-11.792 9.542-21.333 21.333-21.333s21.333 9.542 21.333 21.333v64h85.333v-64c0-11.792 9.542-21.333 21.333-21.333s21.333 9.542 21.333 21.333v64h21.333c47.062 0 85.333 38.292 85.333 85.333v21.333h64c11.792 0 21.333 9.542 21.333 21.333s-9.542 21.333-21.333 21.333h-64v85.333h64c11.792 0 21.333 9.542 21.333 21.333s-9.542 21.333-21.333 21.333h-64v85.333h64c11.792 0 21.333 9.542 21.333 21.333s-9.542 21.333-21.333 21.333h-64v85.333h64zM853.333 128c0-23.542-19.146-42.667-42.667-42.667h-597.333c-23.521 0-42.667 19.125-42.667 42.667v597.333c0 23.542 19.146 42.667 42.667 42.667h597.333c23.521 0 42.667-19.125 42.667-42.667v-597.333zM789.333 725.334h-554.667c-11.792 0-21.333-9.542-21.333-21.333v-554.667c0-11.792 9.542-21.333 21.333-21.333h554.667c11.792 0 21.333 9.542 21.333 21.333v554.667c0 11.792-9.542 21.333-21.333 21.333zM768 170.667h-512v512h512v-512zM416 341.334h-53.333c-11.792 0-21.333-9.542-21.333-21.333s9.542-21.333 21.333-21.333h53.333c41.167 0 74.667 33.5 74.667 74.667 0 20.875-8.604 39.75-22.458 53.333 13.854 13.583 22.458 32.458 22.458 53.333 0 41.167-33.5 74.667-74.667 74.667h-53.333c-11.792 0-21.333-9.542-21.333-21.333s9.542-21.333 21.333-21.333h53.333c17.646 0 32-14.375 32-32s-14.354-32-32-32h-10.667c-11.792 0-21.333-9.542-21.333-21.333s9.542-21.333 21.333-21.333h10.667c17.646 0 32-14.375 32-32s-14.354-32-32-32zM554.667 458.667c11.792 0 21.333 9.542 21.333 21.333 0 17.625 14.354 32 32 32s32-14.375 32-32c0-15.667-5.521-30.917-15.542-42.917l-86.187-103.417c-5.292-6.375-6.437-15.208-2.917-22.708 3.5-7.5 11.042-12.292 19.312-12.292h106.667c11.792 0 21.333 9.542 21.333 21.333s-9.542 21.333-21.333 21.333h-61.125l57.042 68.417c16.396 19.667 25.417 44.625 25.417 70.25 0 41.167-33.5 74.667-74.667 74.667s-74.667-33.5-74.667-74.667c0-11.792 9.542-21.333 21.333-21.333z" />
<glyph unicode="&#xe90e;" glyph-name="Minutes3" data-tags="Minutes" d="M269.521 803.979c3.958-6.833 11.125-10.667 18.5-10.667 3.625 0 7.292 0.917 10.646 2.854 10.208 5.896 13.708 18.938 7.813 29.146l-21.333 36.958c-5.917 10.208-19.021 13.729-29.146 7.813-10.208-5.896-13.708-18.937-7.813-29.146l21.333-36.958zM76.396 653.521l36.958-21.333c3.354-1.937 7.021-2.854 10.646-2.854 7.375 0 14.542 3.833 18.5 10.667 5.896 10.208 2.396 23.25-7.813 29.146l-36.958 21.333c-10.188 5.917-23.25 2.396-29.146-7.813s-2.396-23.25 7.812-29.146zM512 938.667c-11.792 0-21.333-9.542-21.333-21.333v-469.333h-469.333c-11.792 0-21.333-9.542-21.333-21.333 0-282.312 229.688-512 512-512s512 229.688 512 512-229.688 512-512 512zM512-42.666c-251.646 0-457.646 199.083-468.854 448h468.854c11.792 0 21.333 9.542 21.333 21.333v468.854c248.917-11.208 448-217.208 448-468.854 0-258.792-210.542-469.333-469.333-469.333z" />
<glyph unicode="&#xe90f;" glyph-name="bit-CPU2" data-tags="bit-CPU" d="M960 533.334c11.792 0 21.333 9.542 21.333 21.333s-9.542 21.333-21.333 21.333h-64v85.333h64c11.792 0 21.333 9.542 21.333 21.333s-9.542 21.333-21.333 21.333h-64v21.333c0 47.042-38.271 85.333-85.333 85.333h-21.333v64c0 11.792-9.542 21.333-21.333 21.333s-21.333-9.542-21.333-21.333v-64h-85.333v64c0 11.792-9.542 21.333-21.333 21.333s-21.333-9.542-21.333-21.333v-64h-85.333v64c0 11.792-9.542 21.333-21.333 21.333s-21.333-9.542-21.333-21.333v-64h-85.333v64c0 11.792-9.542 21.333-21.333 21.333s-21.333-9.542-21.333-21.333v-64h-85.333v64c0 11.792-9.542 21.333-21.333 21.333s-21.333-9.542-21.333-21.333v-64h-21.333c-47.062 0-85.333-38.292-85.333-85.333v-21.333h-64c-11.792 0-21.333-9.542-21.333-21.333s9.542-21.333 21.333-21.333h64v-85.333h-64c-11.792 0-21.333-9.542-21.333-21.333s9.542-21.333 21.333-21.333h64v-85.333h-64c-11.792 0-21.333-9.542-21.333-21.333s9.542-21.333 21.333-21.333h64v-85.333h-64c-11.792 0-21.333-9.542-21.333-21.333s9.542-21.333 21.333-21.333h64v-85.333h-64c-11.792 0-21.333-9.542-21.333-21.333s9.542-21.333 21.333-21.333h64v-21.333c0-47.042 38.271-85.333 85.333-85.333h21.333v-64c0-11.792 9.542-21.333 21.333-21.333s21.333 9.542 21.333 21.333v64h85.333v-64c0-11.792 9.542-21.333 21.333-21.333s21.333 9.542 21.333 21.333v64h85.333v-64c0-11.792 9.542-21.333 21.333-21.333s21.333 9.542 21.333 21.333v64h85.333v-64c0-11.792 9.542-21.333 21.333-21.333s21.333 9.542 21.333 21.333v64h85.333v-64c0-11.792 9.542-21.333 21.333-21.333s21.333 9.542 21.333 21.333v64h21.333c47.062 0 85.333 38.292 85.333 85.333v21.333h64c11.792 0 21.333 9.542 21.333 21.333s-9.542 21.333-21.333 21.333h-64v85.333h64c11.792 0 21.333 9.542 21.333 21.333s-9.542 21.333-21.333 21.333h-64v85.333h64c11.792 0 21.333 9.542 21.333 21.333s-9.542 21.333-21.333 21.333h-64v85.333h64zM853.333 128c0-23.542-19.146-42.667-42.667-42.667h-597.333c-23.521 0-42.667 19.125-42.667 42.667v597.333c0 23.542 19.146 42.667 42.667 42.667h597.333c23.521 0 42.667-19.125 42.667-42.667v-597.333zM789.333 725.334h-554.667c-11.792 0-21.333-9.542-21.333-21.333v-554.667c0-11.792 9.542-21.333 21.333-21.333h554.667c11.792 0 21.333 9.542 21.333 21.333v554.667c0 11.792-9.542 21.333-21.333 21.333zM768 170.667h-512v512h512v-512zM416 298.667c41.167 0 74.667 33.5 74.667 74.667s-33.5 74.667-74.667 74.667c-10.893 0-21.177-2.471-30.518-6.685 6.992 40.060 41.807 70.685 83.852 70.685 11.792 0 21.333 9.542 21.333 21.333s-9.542 21.333-21.333 21.333c-70.583 0-128-57.417-128-128v-42.667c0-1.266 0.508-2.362 0.719-3.565-0.229-2.372-0.719-4.669-0.719-7.102 0-41.167 33.5-74.667 74.667-74.667zM416 405.334c17.646 0 32-14.375 32-32s-14.354-32-32-32-32 14.375-32 32 14.354 32 32 32zM554.708 362.625l85.292 0.034v-42.659c0-11.792 9.542-21.333 21.333-21.333s21.333 9.542 21.333 21.333v106.667c0 11.792-9.542 21.333-21.333 21.333s-21.333-9.542-21.333-21.333v-21.346l-48.542-0.029 67.062 117.458c5.854 10.25 2.292 23.25-7.938 29.125-10.292 5.75-23.25 2.25-29.104-7.958l-85.292-149.375c-3.771-6.625-3.75-14.708 0.083-21.292 3.813-6.583 10.833-10.625 18.438-10.625z" />
<glyph unicode="&#xe910;" glyph-name="Video" data-tags="Video" d="M384 618.667v-384c0-7.813 4.25-14.979 11.125-18.729 3.167-1.729 6.708-2.604 10.208-2.604 4 0 8.042 1.125 11.542 3.396l298.667 192c6.083 3.917 9.792 10.688 9.792 17.938s-3.708 14.021-9.792 17.938l-298.667 192c-6.542 4.292-15 4.5-21.75 0.792-6.875-3.75-11.125-10.917-11.125-18.729zM426.667 579.584l237.875-152.917-237.875-152.917v305.833zM512 938.667c-9.042 0-17.125-5.729-20.125-14.271s-0.292-18.062 6.791-23.729l106.667-85.333c9.209-7.312 22.625-5.896 30 3.333 7.333 9.208 5.875 22.625-3.334 30l-53.291 42.604c227.333-32.5 402.625-228.458 402.625-464.604 0-211.354-142.667-397.458-346.875-452.604-11.375-3.083-18.125-14.792-15.042-26.167 2.542-9.521 11.167-15.771 20.583-15.771 1.833 0 3.708 0.229 5.542 0.729 222.833 60.167 378.458 263.229 378.458 493.813 0 282.312-229.667 512-512 512zM418.666 38c-9.166 7.292-22.583 5.854-30-3.333-7.334-9.208-5.875-22.625 3.333-30l53.292-42.604c-227.333 32.5-402.625 228.458-402.625 464.604 0 211.354 142.667 397.458 346.875 452.604 11.375 3.083 18.125 14.792 15.042 26.167-3.042 11.354-14.792 18.062-26.125 15.042-222.833-60.167-378.458-263.229-378.458-493.813 0-282.312 229.667-512 512-512 9.042 0 17.125 5.729 20.125 14.271s0.292 18.062-6.792 23.729l-106.667 85.333z" />
<glyph unicode="&#xe911;" glyph-name="View" data-tags="View" d="M938.544 170.784v63.997c0 11.791-9.539 21.332-21.327 21.332s-21.327-9.541-21.327-21.332v-0.635c-38.445 59.599-80.269 112.988-103.179 141.067-7.435 9.145-20.869 10.562-29.991 3.042-9.143-7.437-10.497-20.874-3.041-29.999 41.616-51.019 74.51-96.277 100.169-135.896-11.27 3.614-23.144-2.372-26.836-13.494-3.728-11.187 2.312-23.27 13.475-26.978l47.14-15.718c46.973-85.458 52.12-134.896 37.94-149.067-15.121-15.104-70.646-9.875-177.261 54.435-64.614 38.972-136.565 92.78-210.104 156.504 30.197 27.306 60.47 56.060 90.451 86.049 106.917 106.944 198.383 217.489 261.237 314.915v-0.24c0-11.791 9.539-21.332 21.327-21.332s21.327 9.541 21.327 21.332v63.997c0 2-0.83 3.792-1.364 5.669 48.994 92.249 57.273 155.46 24.545 188.177-63.44 63.435-231.183-43.352-325.531-112.662-9.497-6.958-11.538-20.312-4.561-29.811 6.936-9.458 20.286-11.5 29.804-4.562 153.268 112.558 247.533 139.515 270.13 116.87 13.71-13.713 10.226-61.068-38.429-149.231l-46.651-15.554c-11.163-3.708-17.203-15.791-13.475-26.978 3.645-10.979 15.264-16.913 26.401-13.549-61.175-94.658-150.415-202.328-254.919-306.876-30.692-30.694-61.654-59.972-92.494-87.749-30.84 27.778-61.803 57.055-92.494 87.749-104.504 104.548-193.744 212.218-254.919 306.876 11.137-3.364 22.756 2.57 26.401 13.549 3.728 11.187-2.312 23.27-13.475 26.978l-46.651 15.554c-48.655 88.163-52.139 135.518-38.429 149.231 22.66 22.666 116.945-4.333 270.339-117.037 9.456-6.958 22.848-4.916 29.804 4.562 6.977 9.479 4.936 22.832-4.561 29.811-94.389 69.414-262.341 176.326-325.74 112.829-32.728-32.717-24.449-95.928 24.545-188.177-0.534-1.878-1.364-3.669-1.364-5.669v-63.997c0-11.791 9.539-21.332 21.327-21.332s21.327 9.541 21.327 21.332v0.24c62.854-97.426 154.32-207.971 261.237-314.915 29.981-29.988 60.253-58.742 90.451-86.049-73.539-63.724-145.489-117.532-210.104-156.504-106.719-64.352-162.224-69.456-177.261-54.435-14.17 14.174-9.026 63.617 37.95 149.072l47.13 15.713c11.163 3.708 17.203 15.791 13.475 26.978-3.692 11.114-15.555 17.101-26.818 13.497 25.547 39.441 58.246 84.463 99.609 135.206 7.435 9.125 6.061 22.562-3.062 30.020-9.102 7.416-22.535 6-30.012-3.062-22.788-27.96-64.343-81.046-102.595-140.354v0.609c0 11.791-9.539 21.332-21.327 21.332s-21.327-9.541-21.327-21.332v-63.997c0-2.292 0.867-4.372 1.565-6.495-39.994-75.645-62.237-149.869-24.745-187.352 13.080-13.083 31.012-19.603 53.735-19.603 42.238 0 101.013 22.603 175.72 67.664 67.842 40.938 143.37 97.634 220.27 164.598 76.9-66.964 152.427-123.659 220.27-164.598 74.708-45.082 133.482-67.685 175.741-67.664 22.702 0 40.634 6.521 53.714 19.603 37.489 37.48 15.269 111.675-24.746 187.347 0.698 2.125 1.565 4.208 1.565 6.5zM298.667 618.667c0-11.792 9.542-21.333 21.333-21.333s21.333 9.542 21.333 21.333c0 11.771 9.563 21.333 21.333 21.333s21.333-9.563 21.333-21.333-9.563-21.333-21.333-21.333c-11.792 0-21.333-9.542-21.333-21.333s9.542-21.333 21.333-21.333c11.771 0 21.333-9.563 21.333-21.333s-9.563-21.333-21.333-21.333-21.333 9.563-21.333 21.333c0 11.792-9.542 21.333-21.333 21.333s-21.333-9.542-21.333-21.333c0-35.292 28.708-64 64-64s64 28.708 64 64c0 16.375-6.187 31.333-16.333 42.667 10.146 11.333 16.333 26.292 16.333 42.667 0 35.292-28.708 64-64 64s-64-28.708-64-64zM661.333 469.334c35.292 0 64 28.708 64 64v85.333c0 35.292-28.708 64-64 64s-64-28.708-64-64v-85.333c0-35.292 28.708-64 64-64zM640 618.667c0 11.771 9.563 21.333 21.333 21.333s21.333-9.563 21.333-21.333v-85.333c0-11.771-9.563-21.333-21.333-21.333s-21.333 9.563-21.333 21.333v85.333zM512 469.334c35.292 0 64 28.708 64 64s-28.708 64-64 64c-6.555 0-12.758-1.279-18.716-3.117 4.82 19.414 18.951 45.784 61.383 45.784 11.792 0 21.333 9.542 21.333 21.333s-9.542 21.333-21.333 21.333c-84.375 0-106.667-69.771-106.667-106.667v-42.667c0-35.292 28.708-64 64-64zM512 554.667c11.771 0 21.333-9.563 21.333-21.333s-9.563-21.333-21.333-21.333-21.333 9.563-21.333 21.333 9.563 21.333 21.333 21.333zM810.667 682.667c0 23.521-19.146 42.667-42.667 42.667s-42.667-19.146-42.667-42.667 19.146-42.667 42.667-42.667 42.667 19.146 42.667 42.667z" />
<glyph unicode="&#xe912;" glyph-name="PX" data-tags="PX" d="M271.624 491.438c9.25-2.479 19.042 1.375 23.979 9.563 48.5 80.542 157.437 139 259.062 139 152.917 0 277.333-124.417 277.333-277.333s-124.417-277.333-277.333-277.333c-55.508 0-106.534 17.26-149.333 47.078v230.255c0 82.333 67 149.333 149.333 149.333s149.333-67 149.333-149.333-67-149.333-149.333-149.333c-19.354 0-38.208 3.646-56.021 10.854-10.896 4.417-23.354-0.854-27.771-11.771s0.854-23.354 11.771-27.771c22.917-9.271 47.146-13.979 72.021-13.979 105.875 0 192 86.125 192 192s-86.125 192-192 192-192-86.125-192-192v-194.003c-29.010 31.18-51.461 70.010-64.896 114.794-3.375 11.271-15.271 17.75-26.563 14.312-11.292-3.396-17.688-15.292-14.312-26.563 41.667-138.833 158.542-228.542 297.771-228.542 176.458 0 320 143.542 320 320s-143.542 320-320 320c-93.167 0-192-43.604-256-108.979v322.312h469.333c11.792 0 21.333 9.542 21.333 21.333s-9.542 21.333-21.333 21.333h-490.667c-11.792 0-21.333-9.542-21.333-21.333v-405.333c0-9.583 6.396-18 15.625-20.563zM858.478 99.23c-78.542-91.5-186.437-141.896-303.813-141.896-203.729 0-354.542 126.854-384.25 323.187-1.75 11.646-12.688 19.813-24.271 17.896-11.646-1.75-19.667-12.625-17.896-24.271 32.5-215.021 203.875-359.479 426.417-359.479 130.021 0 249.417 55.667 336.187 156.771 7.667 8.938 6.646 22.417-2.292 30.083-8.875 7.625-22.417 6.667-30.083-2.292zM398.541 782.709c-11.042-4.104-16.667-16.396-12.563-27.437 4.146-11.042 16.479-16.729 27.437-12.563 45.125 16.792 92.667 25.292 141.25 25.292 117.354 0 225.25-50.396 303.813-141.896 4.229-4.917 10.187-7.437 16.187-7.437 4.938 0 9.875 1.688 13.896 5.146 8.938 7.667 9.958 21.146 2.292 30.083-86.792 101.104-206.187 156.771-336.187 156.771-53.688 0-106.208-9.417-156.125-27.958zM475.582 283.584c4.167-4.167 9.625-6.25 15.083-6.25s10.917 2.083 15.083 6.25l48.917 48.917 48.917-48.917c4.167-4.167 9.625-6.25 15.083-6.25s10.917 2.083 15.083 6.25c8.333 8.333 8.333 21.833 0 30.167l-48.917 48.917 48.917 48.917c8.333 8.333 8.333 21.833 0 30.167s-21.833 8.333-30.167 0l-48.917-48.917-48.917 48.917c-8.333 8.333-21.833 8.333-30.167 0s-8.333-21.833 0-30.167l48.917-48.917-48.917-48.917c-8.333-8.333-8.333-21.833 0-30.167z" />
<glyph unicode="&#xe913;" glyph-name="AAC-File" data-tags="AAC-File" d="M960 469.334h-149.333v234.667c0 5.667-2.25 11.083-6.25 15.083l-213.333 213.333c-4 4-9.417 6.25-15.083 6.25h-448c-47.042 0-85.333-38.271-85.333-85.333v-853.333c0-47.062 38.292-85.333 85.333-85.333h597.333c47.042 0 85.333 38.271 85.333 85.333v85.333h149.333c11.792 0 21.333 9.542 21.333 21.333v341.333c0 11.792-9.542 21.333-21.333 21.333zM597.333 865.834l140.5-140.5h-97.833c-23.542 0-42.667 19.146-42.667 42.667v97.833zM768-0c0-23.521-19.125-42.667-42.667-42.667h-597.333c-23.542 0-42.667 19.146-42.667 42.667v853.333c0 23.521 19.125 42.667 42.667 42.667h426.667v-128c0-47.062 38.292-85.333 85.333-85.333h128v-213.333h-490.667c-11.792 0-21.333-9.542-21.333-21.333v-341.333c0-11.792 9.542-21.333 21.333-21.333h490.667v-85.333zM938.667 128h-640v298.667h640v-298.667zM576 170.667c11.792 0 21.333 9.542 21.333 21.333v21.333h42.667v-21.333c0-11.792 9.542-21.333 21.333-21.333s21.333 9.542 21.333 21.333v128c0 35.292-28.708 64-64 64s-64-28.708-64-64v-128c0-11.792 9.542-21.333 21.333-21.333zM618.667 341.334c11.75 0 21.333-9.563 21.333-21.333v-64h-42.667v64c0 11.771 9.583 21.333 21.333 21.333zM405.333 170.667c11.792 0 21.333 9.542 21.333 21.333v21.333h42.667v-21.333c0-11.792 9.542-21.333 21.333-21.333s21.333 9.542 21.333 21.333v128c0 35.292-28.708 64-64 64s-64-28.708-64-64v-128c0-11.792 9.542-21.333 21.333-21.333zM448 341.334c11.75 0 21.333-9.563 21.333-21.333v-64h-42.667v64c0 11.771 9.583 21.333 21.333 21.333zM789.333 170.667c35.292 0 64 28.708 64 64 0 11.792-9.542 21.333-21.333 21.333s-21.333-9.542-21.333-21.333c0-11.771-9.583-21.333-21.333-21.333s-21.333 9.563-21.333 21.333v85.333c0 11.771 9.583 21.333 21.333 21.333s21.333-9.563 21.333-21.333c0-11.792 9.542-21.333 21.333-21.333s21.333 9.542 21.333 21.333c0 35.292-28.708 64-64 64s-64-28.708-64-64v-85.333c0-35.292 28.708-64 64-64z" />
<glyph unicode="&#xe914;" glyph-name="AB-testing" data-tags="AB-testing" d="M384 938.667h-298.667c-47.062 0-85.333-38.271-85.333-85.333v-597.333c0-47.062 38.271-85.333 85.333-85.333h298.667c47.062 0 85.333 38.271 85.333 85.333v597.333c0 47.062-38.271 85.333-85.333 85.333zM85.333 896h298.667c23.521 0 42.667-19.146 42.667-42.667v-469.333h-384v469.333c0 23.521 19.146 42.667 42.667 42.667zM384 213.334h-298.667c-23.521 0-42.667 19.146-42.667 42.667v85.333h384v-85.333c0-23.521-19.146-42.667-42.667-42.667zM213.333 810.667h42.667c11.792 0 21.333 9.542 21.333 21.333s-9.542 21.333-21.333 21.333h-42.667c-11.792 0-21.333-9.542-21.333-21.333s9.542-21.333 21.333-21.333zM277.333 298.667h-85.333c-11.792 0-21.333-9.542-21.333-21.333s9.542-21.333 21.333-21.333h85.333c11.792 0 21.333 9.542 21.333 21.333s-9.542 21.333-21.333 21.333zM384 832c0-11.782-9.551-21.333-21.333-21.333s-21.333 9.551-21.333 21.333c0 11.782 9.551 21.333 21.333 21.333s21.333-9.551 21.333-21.333zM938.667 682.667h-298.667c-47.062 0-85.333-38.271-85.333-85.333v-597.333c0-47.062 38.271-85.333 85.333-85.333h298.667c47.062 0 85.333 38.271 85.333 85.333v597.333c0 47.062-38.271 85.333-85.333 85.333zM640 640h298.667c23.521 0 42.667-19.146 42.667-42.667v-469.333h-384v469.333c0 23.521 19.146 42.667 42.667 42.667zM938.667-42.666h-298.667c-23.521 0-42.667 19.146-42.667 42.667v85.333h384v-85.333c0-23.521-19.146-42.667-42.667-42.667zM768 554.667h42.667c11.792 0 21.333 9.542 21.333 21.333s-9.542 21.333-21.333 21.333h-42.667c-11.792 0-21.333-9.542-21.333-21.333s9.542-21.333 21.333-21.333zM832 42.667h-85.333c-11.792 0-21.333-9.542-21.333-21.333s9.542-21.333 21.333-21.333h85.333c11.792 0 21.333 9.542 21.333 21.333s-9.542 21.333-21.333 21.333zM938.667 576c0-11.782-9.551-21.333-21.333-21.333s-21.333 9.551-21.333 21.333c0 11.782 9.551 21.333 21.333 21.333s21.333-9.551 21.333-21.333zM192 469.334c11.792 0 21.333 9.542 21.333 21.333v21.333h42.667v-21.333c0-11.792 9.542-21.333 21.333-21.333s21.333 9.542 21.333 21.333v128c0 35.292-28.708 64-64 64s-64-28.708-64-64v-128c0-11.792 9.542-21.333 21.333-21.333zM234.667 640c11.771 0 21.333-9.563 21.333-21.333v-64h-42.667v64c0 11.771 9.563 21.333 21.333 21.333zM746.667 213.334h42.667c35.292 0 64 28.708 64 64 0 16.375-6.187 31.333-16.333 42.667 10.146 11.333 16.333 26.292 16.333 42.667 0 35.292-28.708 64-64 64h-42.667c-11.792 0-21.333-9.542-21.333-21.333v-170.667c0-11.792 9.542-21.333 21.333-21.333zM768 384h21.333c11.771 0 21.333-9.563 21.333-21.333s-9.563-21.333-21.333-21.333h-21.333v42.667zM768 298.667h21.333c11.771 0 21.333-9.563 21.333-21.333s-9.563-21.333-21.333-21.333h-21.333v42.667z" />
<glyph unicode="&#xe915;" glyph-name="Abacus" data-tags="Abacus" d="M938.667 938.667c-47.042 0-85.333-38.271-85.333-85.333v-85.602l-46.576 0.195c-8.812 24.818-32.289 42.74-60.091 42.74-28.005 0-51.604-18.193-60.263-43.292h-178.141c-8.659 25.099-32.258 43.292-60.263 43.292s-51.604-18.193-60.263-43.292h-50.141c-8.659 25.099-32.258 43.292-60.263 43.292s-51.604-18.193-60.263-43.292h-46.404v85.958c0 47.062-38.292 85.333-85.333 85.333s-85.333-38.271-85.333-85.333v-853.333c0-47.062 38.292-85.333 85.333-85.333s85.333 38.271 85.333 85.333v85.242l46.688-0.195c8.914-24.633 32.31-42.38 59.979-42.38 27.776 0 51.234 17.888 60.070 42.667h178.526c8.836-24.779 32.294-42.667 60.070-42.667s51.234 17.888 60.070 42.667h50.526c8.836-24.779 32.294-42.667 60.070-42.667s51.234 17.888 60.070 42.667h46.596v-85.333c0-47.062 38.292-85.333 85.333-85.333s85.333 38.271 85.333 85.333v853.333c0 47.062-38.292 85.333-85.333 85.333zM128-0c0-23.521-19.125-42.667-42.667-42.667s-42.667 19.146-42.667 42.667v853.333c0 23.521 19.125 42.667 42.667 42.667s42.667-19.146 42.667-42.667v-853.333zM508.263 340.709c-8.659 25.099-32.258 43.292-60.263 43.292s-51.604-18.193-60.263-43.292h-50.141c-8.659 25.099-32.258 43.292-60.263 43.292s-51.604-18.193-60.263-43.292h-46.404v170.667h260.125c9.005-24.458 32.331-42.042 59.875-42.042s50.87 17.583 59.875 42.042h136.25c9.005-24.458 32.331-42.042 59.875-42.042 27.747 0 51.193 17.854 60.047 42.594l46.62-0.195v-171.023h-345.070zM469.333 320c0-11.771-9.583-21.333-21.333-21.333s-21.333 9.563-21.333 21.333 9.583 21.333 21.333 21.333 21.333-9.563 21.333-21.333zM298.667 320c0-11.771-9.583-21.333-21.333-21.333s-21.333 9.563-21.333 21.333 9.583 21.333 21.333 21.333 21.333-9.563 21.333-21.333zM469.333 533.334c0 11.771 9.583 21.333 21.333 21.333s21.333-9.563 21.333-21.333-9.583-21.333-21.333-21.333-21.333 9.563-21.333 21.333zM725.333 533.334c0 11.771 9.583 21.333 21.333 21.333s21.333-9.563 21.333-21.333-9.583-21.333-21.333-21.333-21.333 9.563-21.333 21.333zM746.667 768c11.75 0 21.333-9.563 21.333-21.333s-9.583-21.333-21.333-21.333-21.333 9.563-21.333 21.333 9.583 21.333 21.333 21.333zM448 768c11.75 0 21.333-9.563 21.333-21.333s-9.583-21.333-21.333-21.333-21.333 9.563-21.333 21.333 9.583 21.333 21.333 21.333zM277.333 768c11.75 0 21.333-9.563 21.333-21.333s-9.583-21.333-21.333-21.333-21.333 9.563-21.333 21.333 9.583 21.333 21.333 21.333zM217.458 724.709c9.005-24.458 32.331-42.042 59.875-42.042s50.87 17.583 59.875 42.042h50.917c9.005-24.458 32.331-42.042 59.875-42.042s50.87 17.583 59.875 42.042h178.917c9.005-24.458 32.331-42.042 59.875-42.042 27.747 0 51.193 17.854 60.047 42.594l46.62-0.195v-170.667l-46.576 0.195c-8.812 24.818-32.289 42.74-60.091 42.74-28.005 0-51.604-18.193-60.263-43.292h-135.474c-8.659 25.099-32.258 43.292-60.263 43.292s-51.604-18.193-60.263-43.292h-259.737v170.667h46.792zM277.333 85.334c-11.75 0-21.333 9.563-21.333 21.333s9.583 21.333 21.333 21.333 21.333-9.563 21.333-21.333-9.583-21.333-21.333-21.333zM576 85.334c-11.75 0-21.333 9.563-21.333 21.333s9.583 21.333 21.333 21.333 21.333-9.563 21.333-21.333-9.583-21.333-21.333-21.333zM746.667 85.334c-11.75 0-21.333 9.563-21.333 21.333s9.583 21.333 21.333 21.333 21.333-9.563 21.333-21.333-9.583-21.333-21.333-21.333zM806.737 128c-8.836 24.779-32.294 42.667-60.070 42.667s-51.234-17.888-60.070-42.667h-50.526c-8.836 24.779-32.294 42.667-60.070 42.667s-51.234-17.888-60.070-42.667h-178.526c-8.836 24.779-32.294 42.667-60.070 42.667-27.88 0-51.404-18.026-60.159-42.951l-46.508 0.195v170.13h46.792c9.005-24.458 32.331-42.042 59.875-42.042s50.87 17.583 59.875 42.042h50.917c9.005-24.458 32.331-42.042 59.875-42.042s50.87 17.583 59.875 42.042h345.458v-170.042h-46.596zM981.333-0c0-23.521-19.125-42.667-42.667-42.667s-42.667 19.146-42.667 42.667v853.333c0 23.521 19.125 42.667 42.667 42.667s42.667-19.146 42.667-42.667v-853.333z" />
<glyph unicode="&#xe916;" glyph-name="ABS" data-tags="ABS" d="M682.667 490.667h42.667c11.792 0 21.333 9.542 21.333 21.333s-9.542 21.333-21.333 21.333h-42.667c-35.292 0-64-28.708-64-64s28.708-64 64-64c11.771 0 21.333-9.583 21.333-21.333s-9.563-21.333-21.333-21.333h-42.667c-11.792 0-21.333-9.542-21.333-21.333s9.542-21.333 21.333-21.333h42.667c35.292 0 64 28.708 64 64s-28.708 64-64 64c-11.771 0-21.333 9.583-21.333 21.333s9.563 21.333 21.333 21.333zM341.333 533.334c-35.292 0-64-28.708-64-64v-128c0-11.792 9.542-21.333 21.333-21.333s21.333 9.542 21.333 21.333v21.333h42.667v-21.333c0-11.792 9.542-21.333 21.333-21.333s21.333 9.542 21.333 21.333v128c0 35.292-28.708 64-64 64zM320 405.334v64c0 11.75 9.563 21.333 21.333 21.333s21.333-9.583 21.333-21.333v-64h-42.667zM512 533.334h-42.667c-11.792 0-21.333-9.542-21.333-21.333v-170.667c0-11.792 9.542-21.333 21.333-21.333h42.667c35.292 0 64 28.708 64 64 0 16.375-6.187 31.333-16.333 42.667 10.146 11.333 16.333 26.292 16.333 42.667 0 35.292-28.708 64-64 64zM512 362.667h-21.333v42.667h21.333c11.771 0 21.333-9.583 21.333-21.333s-9.563-21.333-21.333-21.333zM512 448h-21.333v42.667h21.333c11.771 0 21.333-9.583 21.333-21.333s-9.563-21.333-21.333-21.333zM512 810.667c-211.75 0-384-172.25-384-384s172.25-384 384-384 384 172.25 384 384-172.25 384-384 384zM512 85.334c-188.208 0-341.333 153.125-341.333 341.333s153.125 341.333 341.333 341.333 341.333-153.125 341.333-341.333-153.125-341.333-341.333-341.333zM179.97 772.697c8.337 8.689 8.337 22.765 0 31.453s-21.844 8.689-30.181 0c-199.718-208.139-199.718-546.827 0-754.967 4.169-4.344 9.63-6.517 15.090-6.517s10.922 2.172 15.090 6.517c8.337 8.689 8.337 22.765 0 31.453-183.086 190.805-183.086 501.255 0 692.060zM874.211 804.15c-8.337 8.689-21.844 8.689-30.181 0s-8.337-22.765 0-31.453c183.086-190.805 183.086-501.255 0-692.060-8.337-8.689-8.337-22.765 0-31.453 4.169-4.344 9.63-6.517 15.090-6.517s10.922 2.172 15.090 6.517c199.718 208.139 199.718 546.827 0 754.967z" />
<glyph unicode="&#xe917;" glyph-name="Abulance" data-tags="Abulance" d="M992.083 295.834l-224.417 130.833 224.417 130.958c10.021 5.833 13.542 18.625 7.896 28.771l-106.667 191.958c-2.813 5.083-7.604 8.792-13.208 10.271-5.667 1.521-11.625 0.625-16.563-2.417l-223.542-136.729v267.854c0 11.792-9.542 21.333-21.333 21.333h-213.333c-11.792 0-21.333-9.542-21.333-21.333v-267.854l-223.542 136.729c-4.917 3-10.854 3.854-16.437 2.458-5.583-1.437-10.354-5.062-13.208-10.083l-106.667-186.583c-5.75-10.042-2.417-22.854 7.479-28.833l225.25-136.167-224.958-131.104c-10.021-5.854-13.542-18.646-7.896-28.792l106.667-192.125c2.813-5.083 7.583-8.792 13.208-10.271 5.646-1.5 11.625-0.604 16.563 2.417l223.542 136.729v-267.854c0-11.792 9.542-21.333 21.333-21.333h213.333c11.792 0 21.333 9.542 21.333 21.333v267.854l223.542-136.729c4.938-3.021 10.917-3.938 16.563-2.417 5.625 1.479 10.396 5.187 13.208 10.271l106.667 192.062c5.646 10.146 2.125 22.937-7.896 28.792zM866.813 115.146l-237.021 144.979c-6.542 4.021-14.813 4.187-21.563 0.396-6.729-3.771-10.896-10.896-10.896-18.604v-284.583h-170.667v284.583c0 7.708-4.167 14.833-10.896 18.604-6.729 3.813-15 3.625-21.563-0.396l-237.021-144.979-85.729 154.396 237.958 138.688c6.5 3.792 10.521 10.729 10.583 18.271 0.062 7.521-3.854 14.521-10.292 18.417l-238.188 143.979 85.417 149.437 237.271-145.125c6.563-4.042 14.854-4.208 21.563-0.396 6.729 3.771 10.896 10.896 10.896 18.604v284.583h170.667v-284.583c0-7.708 4.167-14.833 10.896-18.604 6.729-3.792 15.021-3.646 21.563 0.396l237.021 144.979 85.729-154.25-237.958-138.854c-6.563-3.812-10.583-10.833-10.583-18.417s4.042-14.604 10.583-18.437l237.958-138.729-85.729-154.354z" />
<glyph unicode="&#xe918;" glyph-name="Accessability" data-tags="Accessability" d="M512 725.334c58.813 0 106.667 47.854 106.667 106.667s-47.854 106.667-106.667 106.667-106.667-47.854-106.667-106.667 47.854-106.667 106.667-106.667zM512 896c35.292 0 64-28.708 64-64s-28.708-64-64-64-64 28.708-64 64 28.708 64 64 64zM960 682.667h-896c-11.792 0-21.333-9.542-21.333-21.333v-85.333c0-11.792 9.542-21.333 21.333-21.333h277.333v-618.667c0-11.792 9.542-21.333 21.333-21.333h106.667c11.792 0 21.333 9.542 21.333 21.333v320h42.667v-320c0-11.792 9.542-21.333 21.333-21.333h106.667c11.792 0 21.333 9.542 21.333 21.333v618.667h277.333c11.792 0 21.333 9.542 21.333 21.333v85.333c0 11.792-9.542 21.333-21.333 21.333zM938.667 597.334h-277.333c-11.792 0-21.333-9.542-21.333-21.333v-618.667h-64v320c0 11.792-9.542 21.333-21.333 21.333h-85.333c-11.792 0-21.333-9.542-21.333-21.333v-320h-64v618.667c0 11.792-9.542 21.333-21.333 21.333h-277.333v42.667h853.333v-42.667z" />
<glyph unicode="&#xe919;" glyph-name="Accessibility" data-tags="Accessibility" d="M874.667 405.334c11.792 0 21.333 9.542 21.333 21.333v85.333c0 11.792-9.542 21.333-21.333 21.333-143.708 0-239.667 42.042-268 81.104-21.583 29.813-52.375 46.896-84.458 46.896h-10.208c-47.042 0-85.333-38.271-85.333-85.333v-256c0-47.062 38.292-85.333 85.333-85.333h256v-234.667c0-11.792 9.542-21.333 21.333-21.333h85.333c11.792 0 21.333 9.542 21.333 21.333v277.333c0 47.062-38.292 85.333-85.333 85.333h-213.333v105.375c74.458-40.146 173.167-62.708 277.333-62.708zM576 320h234.667c23.542 0 42.667-19.146 42.667-42.667v-256h-42.667v234.667c0 11.792-9.542 21.333-21.333 21.333h-277.333c-23.542 0-42.667 19.146-42.667 42.667v256c0 23.521 19.125 42.667 42.667 42.667h10.208c24.958 0 42-18.333 49.917-29.271 40.625-56 152-94.563 281.208-98.417v-42.646c-104.042 3.25-199.792 30.25-265.25 75.208-6.542 4.479-15.083 5-22 1.292-7.042-3.687-11.417-10.958-11.417-18.875v-164.625c0-11.792 9.542-21.333 21.333-21.333zM619.5 191.917c-11.667 1.292-22.125-7.563-23.167-19.333-9.958-110.542-101.25-193.917-212.333-193.917-117.625 0-213.333 95.708-213.333 213.333 0 111.083 83.375 202.354 193.917 212.333 11.75 1.062 20.375 11.437 19.333 23.167-1.042 11.771-11.625 20.458-23.167 19.333-132.708-11.979-232.75-121.521-232.75-254.833 0-141.167 114.833-256 256-256 133.292 0 242.875 100.062 254.833 232.75 1.042 11.729-7.583 22.104-19.333 23.167zM512 704c58.833 0 106.667 47.854 106.667 106.667s-47.833 106.667-106.667 106.667-106.667-47.854-106.667-106.667 47.833-106.667 106.667-106.667zM512 874.667c35.292 0 64-28.708 64-64s-28.708-64-64-64-64 28.708-64 64 28.708 64 64 64zM256 192c0 62.833 47.167 117.042 109.708 126.083 11.667 1.667 19.75 12.5 18.083 24.146-1.708 11.688-12.792 19.917-24.167 18.062-83.417-12.021-146.292-84.375-146.292-168.292 0-94.104 76.542-170.667 170.667-170.667 83.917 0 156.25 62.896 168.292 146.292 1.667 11.667-6.417 22.479-18.083 24.167-11.5 1.688-22.5-6.396-24.167-18.083-9-62.542-63.208-109.708-126.042-109.708-70.583 0-128 57.417-128 128z" />
<glyph unicode="&#xe91a;" glyph-name="Accordion" data-tags="Accordion" d="M896 853.334h-174.596c-8.836 24.779-32.294 42.667-60.070 42.667-16.451 0-31.318-6.411-42.667-16.646-11.349 10.234-26.216 16.646-42.667 16.646s-31.318-6.411-42.667-16.646c-11.349 10.234-26.216 16.646-42.667 16.646-27.776 0-51.234-17.888-60.070-42.667h-302.596c-47.062 0-85.333-38.271-85.333-85.333v-682.667c0-47.062 38.271-85.333 85.333-85.333h302.596c8.836-24.779 32.294-42.667 60.070-42.667 16.451 0 31.318 6.411 42.667 16.646 11.349-10.234 26.216-16.646 42.667-16.646s31.318 6.411 42.667 16.646c11.349-10.234 26.216-16.646 42.667-16.646 27.776 0 51.234 17.888 60.070 42.667h174.596c47.062 0 85.333 38.271 85.333 85.333v682.667c0 47.062-38.271 85.333-85.333 85.333zM170.667 149.334h-85.333v85.333h85.333c0-11.792 9.542-21.333 21.333-21.333h106.667v-42.667h-106.667c-11.792 0-21.333-9.542-21.333-21.333zM192 682.667h106.667v-42.667h-106.667c-11.792 0-21.333-9.542-21.333-21.333h-85.333v85.333h85.333c0-11.792 9.542-21.333 21.333-21.333zM170.667 576c0-11.792 9.542-21.333 21.333-21.333h106.667v-42.667h-213.333v64h85.333zM298.667 469.334v-42.667h-106.667c-11.792 0-21.333-9.542-21.333-21.333h-85.333v64h213.333zM170.667 362.667c0-11.792 9.542-21.333 21.333-21.333h106.667v-42.667h-106.667c-11.792 0-21.333-9.542-21.333-21.333h-85.333v85.333h85.333zM341.333 810.667h85.333v-768h-85.333v768zM128 810.667h170.667v-42.667h-106.667c-11.792 0-21.333-9.542-21.333-21.333h-85.333v21.333c0 23.521 19.146 42.667 42.667 42.667zM128 42.667c-23.521 0-42.667 19.146-42.667 42.667v21.333h85.333c0-11.792 9.542-21.333 21.333-21.333h106.667v-42.667h-170.667zM490.667-0c-11.771 0-21.333 9.563-21.333 21.333v810.667c0 11.771 9.563 21.333 21.333 21.333s21.333-9.563 21.333-21.333v-810.667c0-11.771-9.563-21.333-21.333-21.333zM576-0c-11.771 0-21.333 9.563-21.333 21.333v810.667c0 11.771 9.563 21.333 21.333 21.333s21.333-9.563 21.333-21.333v-810.667c0-11.771-9.563-21.333-21.333-21.333zM661.333-0c-11.771 0-21.333 9.563-21.333 21.333v810.667c0 11.771 9.563 21.333 21.333 21.333s21.333-9.563 21.333-21.333v-810.667c0-11.771-9.563-21.333-21.333-21.333zM938.667 85.334c0-23.521-19.146-42.667-42.667-42.667h-170.667v768h170.667c23.521 0 42.667-19.146 42.667-42.667v-682.667zM853.333 725.334c0-23.564-19.103-42.667-42.667-42.667s-42.667 19.103-42.667 42.667c0 23.564 19.103 42.667 42.667 42.667s42.667-19.103 42.667-42.667zM896 640c0-23.564-19.103-42.667-42.667-42.667s-42.667 19.103-42.667 42.667c0 23.564 19.103 42.667 42.667 42.667s42.667-19.103 42.667-42.667zM853.333 554.667c0-23.564-19.103-42.667-42.667-42.667s-42.667 19.103-42.667 42.667c0 23.564 19.103 42.667 42.667 42.667s42.667-19.103 42.667-42.667zM896 469.334c0-23.564-19.103-42.667-42.667-42.667s-42.667 19.103-42.667 42.667c0 23.564 19.103 42.667 42.667 42.667s42.667-19.103 42.667-42.667zM853.333 384c0-23.564-19.103-42.667-42.667-42.667s-42.667 19.103-42.667 42.667c0 23.564 19.103 42.667 42.667 42.667s42.667-19.103 42.667-42.667zM896 298.667c0-23.564-19.103-42.667-42.667-42.667s-42.667 19.103-42.667 42.667c0 23.564 19.103 42.667 42.667 42.667s42.667-19.103 42.667-42.667zM853.333 213.334c0-23.564-19.103-42.667-42.667-42.667s-42.667 19.103-42.667 42.667c0 23.564 19.103 42.667 42.667 42.667s42.667-19.103 42.667-42.667zM896 128c0-23.564-19.103-42.667-42.667-42.667s-42.667 19.103-42.667 42.667c0 23.564 19.103 42.667 42.667 42.667s42.667-19.103 42.667-42.667z" />
<glyph unicode="&#xe91b;" glyph-name="Accumulator-Cable" data-tags="Accumulator-Cable" d="M886.824 618.854c-7.084 8.938-17.209 14.583-28.501 15.896l-42.377 4.958c-24.084 2.792-44.585-14.062-47.377-37.417l-24.751-211.958c-0.925-8.211 1.221-15.789 4.542-22.76l-1.042 0.26-17.292-69.167h-9.334l-17.292 69.167-1.052-0.263c3.328 6.984 5.477 14.586 4.552 22.826l-24.793 211.917c-2.539 21.552-20.394 37.029-42.085 37.003v43.352c0 141.167-114.838 256-256.011 256s-256.011-114.833-256.011-256 114.838-256 256.011-256c70.586 0 128.005-57.417 128.005-128s-57.419-128-128.005-128c-11.792 0-21.334-9.542-21.334-21.333s9.542-21.333 21.334-21.333c94.129 0 170.674 76.563 170.674 170.667s-76.545 170.667-170.674 170.667c-117.63 0-213.342 95.708-213.342 213.333s95.712 213.333 213.342 213.333 213.342-95.708 213.342-213.333v-47.341l-4.917-0.576c-11.334-1.312-21.459-6.958-28.543-15.896s-10.209-20.104-8.917-31.417l24.709-211.896c1.505-12.646 8.74-22.872 18.475-29.617l20.569-410.987c0.542-11.354 9.917-20.271 21.293-20.271 47.044 0 85.337 38.271 85.337 85.333 0-47.062 38.293-85.333 85.337-85.333 11.375 0 20.751 8.917 21.293 20.271l20.569 410.995c9.727 6.747 16.969 16.971 18.475 29.609l24.668 211.875c1.333 11.333-1.792 22.5-8.875 31.437zM785.006 342.625l24.539-2.867-4.008-80.003c-6.349 14.844-18.195 26.74-32.922 33.307l12.391 49.563zM639.725 597.334l24.75-211.854c0-0.021 0-0.042 0-0.042l-42.375-4.938-24.708 211.875 42.333 4.958zM684.933 201.542l-21.333-42.667c-3-6-3-13.083 0-19.083l16.583-33.125-16.583-33.125c-3-6-3-13.083 0-19.083l19.083-38.167v-16.292c0-16.292-9.167-30.479-22.625-37.667l-18.904 377.424 24.539 2.867 17.615-70.458c2.375-9.5 10.917-16.167 20.708-16.167h42.667c11.75 0 21.333-9.563 21.333-21.333s-9.583-21.333-21.333-21.333h-42.667c-8.083 0-15.458-4.563-19.083-11.792zM727.6 97.125l16.583-33.125-16.583-33.125c-1.458-2.958-2.25-6.229-2.25-9.542 0 3.312-0.792 6.583-2.25 9.542l-16.583 33.125 16.583 33.125c1.5 3 2.25 6.271 2.25 9.542s-0.75 6.542-2.25 9.542l-16.583 33.125 10.667 21.333h16.32l10.68-21.333-16.583-33.125c-1.5-3-2.25-6.271-2.25-9.542s0.75-6.542 2.25-9.542zM768.016-0v16.292l19.083 38.167c3 6 3 13.083 0 19.083l-16.583 33.125 16.583 33.125c3 6 3 13.083 0 19.083l-9.935 19.87c10.857 5.943 19.714 14.849 25.604 25.74l-12.128-242.151c-13.458 7.187-22.625 21.375-22.625 37.667zM828.641 380.48l-42.375 4.958-2.5-21.187 27.167 233.083 42.375-4.938-24.667-211.917z" />
<glyph unicode="&#xe91c;" glyph-name="Accumulator" data-tags="Accumulator" d="M234.667 554.667h-85.333c-11.792 0-21.333-9.542-21.333-21.333s9.542-21.333 21.333-21.333h85.333c11.792 0 21.333 9.542 21.333 21.333s-9.542 21.333-21.333 21.333zM874.667 554.667h-21.333v21.333c0 11.792-9.542 21.333-21.333 21.333s-21.333-9.542-21.333-21.333v-21.333h-21.333c-11.792 0-21.333-9.542-21.333-21.333s9.542-21.333 21.333-21.333h21.333v-21.333c0-11.792 9.542-21.333 21.333-21.333s21.333 9.542 21.333 21.333v21.333h21.333c11.792 0 21.333 9.542 21.333 21.333s-9.542 21.333-21.333 21.333zM938.667 725.334v42.667c0 23.521-19.125 42.667-42.667 42.667h-128c-23.542 0-42.667-19.146-42.667-42.667v-42.667h-12.5l-17.667 17.667c-15.875 15.896-37.875 25-60.333 25h-245.667c-22.458 0-44.458-9.104-60.333-25l-17.667-17.667h-12.5v42.667c0 23.521-19.125 42.667-42.667 42.667h-128c-23.542 0-42.667-19.146-42.667-42.667v-42.667c-47.042 0-85.333-38.271-85.333-85.333v-512c0-47.062 38.292-85.333 85.333-85.333h853.333c47.042 0 85.333 38.271 85.333 85.333v512c0 47.062-38.292 85.333-85.333 85.333zM768 768h128v-42.667h-128v42.667zM128 768h128v-42.667h-128v42.667zM981.333 128c0-23.521-19.125-42.667-42.667-42.667h-853.333c-23.542 0-42.667 19.146-42.667 42.667v512c0 23.521 19.125 42.667 42.667 42.667h234.667c5.667 0 11.083 2.25 15.083 6.25l23.917 23.917c7.958 7.937 18.958 12.5 30.167 12.5h245.667c11.208 0 22.208-4.563 30.167-12.5l23.917-23.917c4-4 9.417-6.25 15.083-6.25h234.667c23.542 0 42.667-19.146 42.667-42.667v-512z" />
<glyph unicode="&#xe91d;" glyph-name="ACD-File" data-tags="ACD-File" d="M889.75 719.084l-213.333 213.333c-4 4-9.417 6.25-15.083 6.25h-448c-47.062 0-85.333-38.271-85.333-85.333v-853.333c0-47.062 38.271-85.333 85.333-85.333h597.333c47.062 0 85.333 38.271 85.333 85.333v704c0 5.667-2.25 11.083-6.25 15.083zM682.667 865.834l140.5-140.5h-97.833c-23.521 0-42.667 19.146-42.667 42.667v97.833zM810.667-42.666h-597.333c-23.521 0-42.667 19.146-42.667 42.667v853.333c0 23.521 19.146 42.667 42.667 42.667h426.667v-128c0-47.062 38.271-85.333 85.333-85.333h128v-682.667c0-23.521-19.146-42.667-42.667-42.667zM512 640c-164.688 0-298.667-133.979-298.667-298.667s133.979-298.667 298.667-298.667 298.667 133.979 298.667 298.667-133.979 298.667-298.667 298.667zM512 85.334c-141.167 0-256 114.833-256 256s114.833 256 256 256 256-114.833 256-256-114.833-256-256-256zM512 469.334c-70.583 0-128-57.417-128-128s57.417-128 128-128 128 57.417 128 128-57.417 128-128 128zM512 256c-47.062 0-85.333 38.271-85.333 85.333s38.271 85.333 85.333 85.333 85.333-38.271 85.333-85.333-38.271-85.333-85.333-85.333zM512 384c-23.521 0-42.667-19.146-42.667-42.667s19.146-42.667 42.667-42.667 42.667 19.146 42.667 42.667-19.146 42.667-42.667 42.667z" />
<glyph unicode="&#xe91e;" glyph-name="Acid" data-tags="Acid" d="M704 597.334c58.813 0 106.667 47.854 106.667 106.667 0 69.479-80.792 172.479-90 184-4.068 5.068-10.378 8.005-16.685 8-6.297-0.005-12.591-2.943-16.648-8-9.208-11.521-90-114.521-90-184 0-58.813 47.854-106.667 106.667-106.667zM704 839.125c26.417-37.021 64-97.875 64-135.125 0-35.292-28.708-64-64-64s-64 28.708-64 64c0 37.187 37.604 98.062 64 135.125zM1024 298.667c0 37.167-23.896 68.854-57.104 80.542 9.104 13.583 14.437 29.896 14.437 47.458 0 47.062-38.271 85.333-85.333 85.333h-42.688c-8.083 0-15.479-4.563-19.083-11.792l-13.042-26.125-46.437 15.479c-10.458 3.542-21.979-1.625-26.354-11.833l-45.708-106.604c0-0.042-0.021-0.083-0.042-0.125l-0.125-0.312-43.437 86.854c-2.729 5.479-7.688 9.5-13.604 11.083-5.896 1.563-12.208 0.5-17.312-2.875l-40.771-27.187-19.646 58.854c-2.896 8.708-11.042 14.583-20.229 14.583h-179.812c-10.75 0-16.271 7.083-18.146 10.125-1.896 3.042-5.75 11.146-0.938 20.75l68.5 137c6.25 12.479 9.542 26.458 9.542 40.417 0 49.833-40.542 90.375-90.375 90.375h-16.292c-5.917 0-11.563-2.458-15.604-6.771l-229.812-246.229c-48.083-51.542-74.583-118.75-74.583-189.229v-197.771c0-117.625 95.708-213.333 213.333-213.333h554.667c47.062 0 85.333 38.271 85.333 85.333 0 15.521-4.167 30.104-11.458 42.667h54.125c47.062 0 85.333 38.271 85.333 85.333 0 17.563-5.333 33.875-14.437 47.458 33.208 11.688 57.104 43.375 57.104 80.542zM779.875 442.896l45.375-15.125c10.062-3.417 21.104 1.187 25.833 10.688l15.417 30.875h29.5c23.521 0 42.667-19.146 42.667-42.667s-19.146-42.667-42.667-42.667h-141.354l25.229 58.896zM938.667 256h-320c-11.792 0-21.333-9.542-21.333-21.333s9.542-21.333 21.333-21.333h277.333c23.521 0 42.667-19.146 42.667-42.667s-19.146-42.667-42.667-42.667h-341.333c-8.083 0-15.5-4.646-19.125-11.875-1.521-3.062-2.25-6.333-2.25-9.521 0.021-7.813 4.333-15.333 11.813-19.062 3.458-1.729 7.083-2.542 10.771-2.208h212.125c23.521 0 42.667-19.146 42.667-42.667s-19.146-42.667-42.667-42.667h-554.667c-94.104 0-170.667 76.563-170.667 170.667v197.771c0 59.625 22.417 116.5 63.125 160.104l223.479 239.458h7.021c26.312 0 47.708-21.396 47.708-47.708 0-7.354-1.75-14.75-5.042-21.333l-68.5-137c-10-19.979-8.938-43.271 2.792-62.271 11.75-19 32.104-30.354 54.458-30.354h164.437l23.625-70.75c2.104-6.312 7.021-11.271 13.312-13.437s13.25-1.292 18.75 2.437l43.896 29.271 53.187-106.396c3.708-7.438 11.896-12.083 19.708-11.792 8.312 0.25 15.708 5.292 18.979 12.938l12.75 29.729h202.312c23.521 0 42.667-19.146 42.667-42.667s-19.146-42.667-42.667-42.667z" />
<glyph unicode="&#xe91f;" glyph-name="Acorn" data-tags="Acorn" d="M896 597.334c0 136.367-160.862 247.836-362.667 255.281v0.719c0 23.521 19.125 42.667 42.667 42.667 11.792 0 21.333 9.542 21.333 21.333s-9.542 21.333-21.333 21.333c-47.042 0-85.333-38.271-85.333-85.333v-0.719c-201.805-7.445-362.667-118.914-362.667-255.281 0-36.026 22.513-66.734 54.135-79.234-6.974-40.703-11.469-83.18-11.469-112.766 0-301.958 165.542-389.896 264.458-442.437 26.542-14.083 51.583-27.396 59.125-38.729 3.958-5.938 10.625-9.5 17.75-9.5s13.792 3.563 17.75 9.5c7.542 11.333 32.583 24.646 59.125 38.729 98.917 52.542 264.458 140.479 264.458 442.437 0 29.586-4.495 72.062-11.469 112.766 31.622 12.5 54.135 43.208 54.135 79.234zM568.875 0.563c-22.792-12.083-42.333-22.479-56.875-34.083-14.542 11.604-34.083 22-56.875 34.083-96.292 51.167-241.792 128.458-241.792 404.771 0 27.198 4.388 68.174 11.008 106.667h575.318c6.62-38.492 11.008-79.469 11.008-106.667 0-276.312-145.5-353.604-241.792-404.771zM810.667 554.667h-597.333c-23.542 0-42.667 19.146-42.667 42.667 0 117.625 153.125 213.333 341.333 213.333s341.333-95.708 341.333-213.333c0-23.521-19.125-42.667-42.667-42.667z" />
<glyph unicode="&#xe920;" glyph-name="Acropolis" data-tags="Acropolis" d="M960 511.993c11.792 0 21.333 9.542 21.333 21.333v85.292c0 7.542-3.958 14.5-10.437 18.333l-46.062 27.375c-5.333 3.208-11.729 3.833-17.646 1.917l-45.062-15.042 7.104 28.458c2.292 9.167-3.542 19.833-11.667 24.625-5.854 3.417-13 3.875-19.25 1.25l-38.896-16.667-17.667 35.333c-2.729 5.458-7.688 9.5-13.604 11.083-1.479 0.375-3 0.625-4.5 0.667l-2.312 16.208c-0.917 6.417-4.688 12.042-10.229 15.333l-42.604 25.292c-6.208 3.708-13.917 3.958-20.417 0.75-6.479-3.208-10.875-9.542-11.688-16.708l-8.208-73.958c-5.208 1.75-11.083 1.5-16.396-1.125l-42.667-21.333c-2.042-1.042-3.917-2.375-5.542-4l-0.396-0.417-8.104 16.208c-2.062 4.125-5.417 7.458-9.542 9.542l-30.875 15.417v153.167c0 8.917-5.542 16.875-13.896 20-10.209 3.796-19.692 5.491-28.791 5.667-14.37 0.278-27.782-3.538-41.584-11.167l-108.375-64.375c-7.771-4.625-11.792-13.625-10.021-22.5l2.542-12.708-17.729 8.875c-6.458 3.208-14.167 2.958-20.437-0.75l-125.979-74.875c-7.792-4.625-11.792-13.667-10.021-22.5l0.167-0.875-0.708 0.583c-6.958 5.833-16.771 6.583-24.563 1.958l-48.729-28.958c-8.625-5.125-12.521-15.542-9.354-25.083l1.229-3.625-34.437-0.042c-11.771 0-21.312-9.542-21.312-21.333v-85.292c0-11.792 9.542-21.333 21.333-21.333h64v-384c-47.062 0-85.333-38.292-85.333-85.333v-64c0-11.792 9.542-21.333 21.333-21.333h896c11.792 0 21.333 9.542 21.333 21.333v64c0 47.042-38.271 85.333-85.333 85.333v384h64zM85.375 597.327h42.625c6.854 0 13.292 3.292 17.312 8.875 4 5.542 5.104 12.708 2.938 19.208l-5.146 15.417 20.979 12.458 35.583-29.667c6.979-5.792 16.771-6.542 24.583-1.958 7.771 4.625 11.771 13.667 10 22.5l-9.083 45.375 102.979 61.208 46.312-23.167c7.292-3.583 15.979-2.792 22.479 2.125 6.479 4.958 9.583 13.167 7.979 21.125l-8.125 40.667 94.792 56.333c6.646 3.625 13.5 5.5 20.375 5.5 0.021 0 0.021 0 0.021 0l0.021-149.333c0-8.083 4.563-15.458 11.792-19.083l36.312-18.167 18.146-36.292c3.062-6.125 8.896-10.417 15.667-11.5 6.771-1.208 13.667 1.125 18.5 5.958l18.896 18.875 20.479 10.25 11.792-23.583c4.229-8.458 13.5-13 22.833-11.458 9.312 1.667 16.417 9.25 17.458 18.625l11.271 101.625 5.396-3.208 5-35.042c1.042-7.292 5.729-13.5 12.417-16.458 5.229-2.333 11.021-2.458 16.187-0.542l16.104-32.208c5.062-10.167 17.104-14.458 27.479-10.083l20.208 8.667-6.625-26.542c-1.896-7.542 0.479-15.542 6.187-20.833 5.771-5.333 13.938-7 21.25-4.583l72.688 24.25 27.229-16.167v-51.833h-853.312l0.021 42.667zM597.333 127.993v384h128v-384h-128zM426.667 511.993v-384h-128v384h128zM469.333 511.993h85.333v-384h-85.333v384zM170.667 511.993h85.333v-384h-85.333v384zM938.667 42.66v-42.667h-853.333v42.667c0 23.542 19.146 42.667 42.667 42.667h768c23.521 0 42.667-19.125 42.667-42.667zM853.333 127.993h-85.333v384h85.333v-384z" />
<glyph unicode="&#xe921;" glyph-name="Acupuncture" data-tags="Acupuncture" d="M849.132 844.167c-41.979 21.208-93.396 4.271-114.625-37.708-10.271-20.354-12.021-43.479-4.896-65.125 2.346-7.135 5.849-13.617 9.836-19.753l-168.794-334.268c-1.042-2.062-1.729-4.25-2.062-6.521l-9.289-63.315-25.94-51.372v71.792l20.229 60.688c0.729 2.187 1.104 4.458 1.104 6.75v374.534c25.383 14.799 42.667 42.016 42.667 73.466 0 47.062-38.271 85.333-85.333 85.333s-85.333-38.271-85.333-85.333c0-31.451 17.284-58.667 42.667-73.466v-374.534c0-2.292 0.375-4.563 1.104-6.75l20.229-60.688v-156.281l-1.865-3.695-57.245 137.169-4.703 63.828c-0.167 2.292-0.708 4.542-1.583 6.646l-144.25 345.651c17.711 23.44 23.18 55.221 11.083 84.245-18.125 43.417-68.187 64-111.604 45.854-21.042-8.771-37.396-25.208-46.083-46.292-8.667-21.083-8.604-44.292 0.187-65.333 12.055-28.896 38.445-46.794 67.445-50.781l144.471-346.198c0.875-2.125 2.104-4.083 3.604-5.813l42.073-48.26 71.294-170.836-85.367-169.049c-5.312-10.521-1.083-23.354 9.417-28.667 3.083-1.563 6.375-2.292 9.604-2.292 7.792 0 15.312 4.292 19.062 11.708l68.914 136.466 5.544-13.286v-126.68c0-11.792 9.542-21.333 21.333-21.333s21.333 9.542 21.333 21.333v24.44l13.625-32.648c3.417-8.187 11.354-13.125 19.688-13.125 2.75 0 5.542 0.521 8.208 1.646 10.875 4.542 16.021 17.021 11.479 27.896l-53 127v100.232l64.034 126.802 45.424 45.070c1.625 1.625 2.979 3.479 4.021 5.521l168.945 334.609c7.234 0.448 14.487 1.156 21.555 3.474 21.667 7.125 39.25 22.271 49.521 42.604 0 0.021 0 0.021 0 0.021 21.208 42 4.271 93.417-37.729 114.625zM512.028 896c23.521 0 42.667-19.146 42.667-42.667s-19.146-42.667-42.667-42.667-42.667 19.146-42.667 42.667 19.146 42.667 42.667 42.667zM174.007 766.125v0.021c-4.396 10.5-4.417 22.104-0.083 32.646s12.5 18.75 23.042 23.146c5.292 2.208 10.854 3.312 16.417 3.312 5.5 0 10.979-1.062 16.208-3.208 10.542-4.333 18.771-12.521 23.167-23.021 9.062-21.729-1.25-46.771-22.938-55.833-21.792-9.021-46.75 1.229-55.813 22.938zM610.32 371.167v0zM848.778 748.75c-5.146-10.167-13.938-17.729-24.771-21.292-10.792-3.583-22.375-2.75-32.542 2.437-10.188 5.146-17.75 13.937-21.313 24.771-3.563 10.813-2.708 22.375 2.437 32.542 7.5 14.854 22.563 23.437 38.167 23.437 6.458 0 13-1.458 19.146-4.563 21-10.604 29.479-36.312 18.875-57.333z" />
<glyph unicode="&#xe922;" glyph-name="Add-Apartment" data-tags="Add-Apartment" d="M896 358.097v111.242h106.667c8.917 0 16.875 5.521 20 13.854 3.083 8.333 0.708 17.729-6 23.583l-490.667 426.667c-8 6.958-20 6.958-28 0l-490.667-426.667c-6.708-5.854-9.083-15.25-6-23.583 3.125-8.333 11.083-13.854 20-13.854h106.667v-448c0-11.792 9.542-21.333 21.333-21.333h213.333c11.792 0 21.333 9.542 21.333 21.333v405.333h256v-96.464c-52.081-43.076-85.333-108.161-85.333-180.87 0-129.396 105.292-234.667 234.667-234.667s234.667 105.271 234.667 234.667c0 90.966-52.141 169.831-128 208.758zM661.333 469.339h-298.667c-11.792 0-21.333-9.542-21.333-21.333v-405.333h-170.667v448c0 11.792-9.542 21.333-21.333 21.333h-70.958l433.625 377.062 433.625-377.062h-70.958c-11.792 0-21.333-9.542-21.333-21.333v-115.766c-20.378 5.794-41.792 9.099-64 9.099-38.424 0-74.62-9.464-106.667-25.909v89.909c0 11.792-9.542 21.333-21.333 21.333zM789.333-42.661c-105.875 0-192 86.125-192 192s86.125 192 192 192 192-86.125 192-192-86.125-192-192-192zM874.666 170.672h-64v64c0 11.792-9.542 21.333-21.333 21.333s-21.333-9.542-21.333-21.333v-64h-64c-11.792 0-21.333-9.542-21.333-21.333s9.542-21.333 21.333-21.333h64v-64c0-11.792 9.542-21.333 21.333-21.333s21.333 9.542 21.333 21.333v64h64c11.792 0 21.333 9.542 21.333 21.333s-9.542 21.333-21.333 21.333z" />
<glyph unicode="&#xe923;" glyph-name="Add-Camera" data-tags="Add-Camera" d="M1013.875 807.48c-6.271 3.896-14.146 4.229-20.75 0.938l-225.125-112.563v29.479c0 47.062-38.271 85.333-85.333 85.333h-572.125c-68.187 0-110.542-114.437-110.542-298.667s42.354-298.667 110.542-298.667h69.221c27.953-98.346 118.383-170.667 225.57-170.667s197.617 72.32 225.57 170.667h51.763c47.062 0 85.333 38.271 85.333 85.333v29.479l225.125-112.563c3.021-1.5 6.271-2.25 9.542-2.25 3.896 0 7.792 1.062 11.208 3.187 6.292 3.896 10.125 10.75 10.125 18.146v554.667c0 7.396-3.833 14.25-10.125 18.146zM405.333 85.334c-105.875 0-192 86.125-192 192s86.125 192 192 192 192-86.125 192-192-86.125-192-192-192zM981.333 269.188l-225.125 112.563c-6.646 3.271-14.458 2.958-20.75-0.938s-10.125-10.75-10.125-18.146v-64c0-23.521-19.146-42.667-42.667-42.667h-43.747c0.638 7.036 1.081 14.133 1.081 21.333 0 129.396-105.271 234.667-234.667 234.667s-234.667-105.271-234.667-234.667c0-7.201 0.443-14.297 1.081-21.333h-61.206c-27.375 0-67.875 81.354-67.875 256s40.5 256 67.875 256h572.125c23.521 0 42.667-19.146 42.667-42.667v-64c0-7.396 3.833-14.25 10.125-18.146 6.25-3.875 14.083-4.208 20.75-0.938l225.125 112.563v-485.625zM490.667 298.667h-64v64c0 11.792-9.542 21.333-21.333 21.333s-21.333-9.542-21.333-21.333v-64h-64c-11.792 0-21.333-9.542-21.333-21.333s9.542-21.333 21.333-21.333h64v-64c0-11.792 9.542-21.333 21.333-21.333s21.333 9.542 21.333 21.333v64h64c11.792 0 21.333 9.542 21.333 21.333s-9.542 21.333-21.333 21.333z" />
<glyph unicode="&#xe924;" glyph-name="Add-Card" data-tags="Add-Card" d="M938.667 415.545v352.456c0 47.062-38.271 85.333-85.333 85.333h-768c-47.062 0-85.333-38.271-85.333-85.333v-512c0-47.062 38.271-85.333 85.333-85.333h478.43c27.953-98.346 118.383-170.667 225.57-170.667 129.396 0 234.667 105.271 234.667 234.667 0 72.714-33.247 137.799-85.333 180.878zM42.667 768c0 23.521 19.146 42.667 42.667 42.667h768c23.521 0 42.667-19.146 42.667-42.667v-42.667h-853.333v42.667zM42.667 682.667h853.333v-85.333h-853.333v85.333zM85.333 213.334c-23.521 0-42.667 19.146-42.667 42.667v298.667h853.333v-111.24c-32.047 16.44-68.242 25.906-106.667 25.906-129.396 0-234.667-105.271-234.667-234.667 0-7.201 0.443-14.297 1.081-21.333h-470.414zM789.333 42.667c-105.875 0-192 86.125-192 192s86.125 192 192 192 192-86.125 192-192-86.125-192-192-192zM874.667 256h-64v64c0 11.792-9.542 21.333-21.333 21.333s-21.333-9.542-21.333-21.333v-64h-64c-11.792 0-21.333-9.542-21.333-21.333s9.542-21.333 21.333-21.333h64v-64c0-11.792 9.542-21.333 21.333-21.333s21.333 9.542 21.333 21.333v64h64c11.792 0 21.333 9.542 21.333 21.333s-9.542 21.333-21.333 21.333z" />
<glyph unicode="&#xe925;" glyph-name="Add-Clip" data-tags="Add-Clip" d="M810.667 438.467v278.414c0 11.792-9.542 21.333-21.333 21.333h-725.333c-11.792 0-21.333-9.542-21.333-21.333v-67.93c-24.779-8.836-42.667-32.294-42.667-60.070s17.888-51.234 42.667-60.070v-302.596c0-47.062 38.271-85.333 85.333-85.333h435.763c27.953-98.346 118.383-170.667 225.57-170.667 129.396 0 234.667 105.271 234.667 234.667 0 122.195-93.911 222.758-213.333 233.586zM542.167 610.214l85.333 85.333h67.667l-85.333-85.333h-67.667zM414.167 610.214l85.333 85.333h67.667l-85.333-85.333h-67.667zM286.167 610.214l85.333 85.333h67.667l-85.333-85.333h-67.667zM158.167 610.214l85.333 85.333h67.667l-85.333-85.333h-67.667zM755.5 695.547h12.5v-85.333h-97.833l85.333 85.333zM183.167 695.547l-68.281-68.281c-7.477 9.88-17.672 17.448-29.552 21.685v46.596h97.833zM64 610.214c11.771 0 21.333-9.563 21.333-21.333s-9.563-21.333-21.333-21.333-21.333 9.563-21.333 21.333 9.563 21.333 21.333 21.333zM128 183.548c-23.521 0-42.667 19.146-42.667 42.667v302.596c18.073 6.445 32.292 20.664 38.737 38.737h643.93v-129.081c-119.422-10.828-213.333-111.391-213.333-233.586 0-7.201 0.443-14.297 1.081-21.333h-427.747zM789.333 12.881c-105.875 0-192 86.125-192 192s86.125 192 192 192 192-86.125 192-192-86.125-192-192-192zM874.667 226.214h-64v64c0 11.792-9.542 21.333-21.333 21.333s-21.333-9.542-21.333-21.333v-64h-64c-11.792 0-21.333-9.542-21.333-21.333s9.542-21.333 21.333-21.333h64v-64c0-11.792 9.542-21.333 21.333-21.333s21.333 9.542 21.333 21.333v64h64c11.792 0 21.333 9.542 21.333 21.333s-9.542 21.333-21.333 21.333z" />
<glyph unicode="&#xe926;" glyph-name="Add-Contact" data-tags="Add-Contact" d="M768 938.667h-512c-47.042 0-85.333-38.271-85.333-85.333v-853.333c0-47.062 38.292-85.333 85.333-85.333h512c47.042 0 85.333 38.271 85.333 85.333v853.333c0 47.062-38.292 85.333-85.333 85.333zM256 896h512c23.542 0 42.667-19.146 42.667-42.667v-725.333h-597.333v725.333c0 23.521 19.125 42.667 42.667 42.667zM768-42.666h-512c-23.542 0-42.667 19.146-42.667 42.667v85.333h597.333v-85.333c0-23.521-19.125-42.667-42.667-42.667zM490.667 810.667h42.667c11.792 0 21.333 9.542 21.333 21.333s-9.542 21.333-21.333 21.333h-42.667c-11.792 0-21.333-9.542-21.333-21.333s9.542-21.333 21.333-21.333zM576 42.667h-128c-11.792 0-21.333-9.542-21.333-21.333s9.542-21.333 21.333-21.333h128c11.792 0 21.333 9.542 21.333 21.333s-9.542 21.333-21.333 21.333zM768 832.006c0-11.782-9.551-21.333-21.333-21.333s-21.333 9.551-21.333 21.333c0 11.782 9.551 21.333 21.333 21.333s21.333-9.551 21.333-21.333zM448 469.334c58.833 0 106.667 47.854 106.667 106.667s-47.833 106.667-106.667 106.667-106.667-47.854-106.667-106.667 47.833-106.667 106.667-106.667zM448 640c35.292 0 64-28.708 64-64s-28.708-64-64-64-64 28.708-64 64 28.708 64 64 64zM301.708 256h292.583c25.208 0 45.708 22.125 45.708 49.333v13.667c0 35.646-17.667 68.208-46.083 84.979-34.083 20.083-87.083 44.021-145.917 44.021s-111.833-23.938-145.917-44.021c-28.417-16.771-46.083-49.333-46.083-84.979v-13.667c0-27.208 20.5-49.333 45.708-49.333zM298.667 319c0 20.312 9.833 39.229 25.083 48.229 29.5 17.375 75 38.104 124.25 38.104s94.75-20.729 124.25-38.104c15.25-9 25.083-27.917 25.083-48.229v-13.667c0-4.437-2.542-6.667-3.042-6.667h-292.583c-0.5 0-3.042 2.229-3.042 6.667v13.667zM618.667 554.667h42.667v-42.688c0-11.792 9.542-21.333 21.333-21.333s21.333 9.542 21.333 21.333v42.688h42.667c11.792 0 21.333 9.542 21.333 21.333s-9.542 21.333-21.333 21.333h-42.667v42.708c0 11.792-9.542 21.333-21.333 21.333s-21.333-9.542-21.333-21.333v-42.708h-42.667c-11.792 0-21.333-9.542-21.333-21.333s9.542-21.333 21.333-21.333z" />
<glyph unicode="&#xe927;" glyph-name="Add-Database" data-tags="Add-Database" d="M938.667 330.203v459.13c0 98.042-236.125 149.333-469.333 149.333s-469.333-51.292-469.333-149.333v-640c0-98.042 236.125-149.333 469.333-149.333 45.174 0 90.276 2.237 134.492 6.161 42.958-55.529 110.044-91.495 185.508-91.495 129.375 0 234.667 105.271 234.667 234.667 0 72.708-33.253 137.794-85.333 180.87zM469.333 896c260.458 0 426.667-63.167 426.667-106.667s-166.208-106.667-426.667-106.667-426.667 63.167-426.667 106.667 166.208 106.667 426.667 106.667zM42.667 723.305c78.326-54.88 253.214-83.305 426.667-83.305s348.341 28.424 426.667 83.305v-147.305c0-43.5-166.208-106.667-426.667-106.667s-426.667 63.167-426.667 106.667v147.305zM42.667 509.972c78.326-54.88 253.214-83.305 426.667-83.305s348.341 28.424 426.667 83.305v-151.88c-32.047 16.445-68.242 25.909-106.667 25.909-89.221 0-166.953-50.083-206.633-123.599-36.81-2.792-74.766-4.401-113.367-4.401-260.458 0-426.667 63.167-426.667 106.667v147.305zM469.333 42.667c-260.458 0-426.667 63.167-426.667 106.667v147.305c78.326-54.88 253.214-83.305 426.667-83.305 32.289 0 64.031 1.289 95.26 3.208-6.388-21.312-9.927-43.846-9.927-67.208 0-36.685 8.703-71.294 23.779-102.25-36.047-2.659-72.5-4.417-109.112-4.417zM789.333-42.666c-105.875 0-192 86.125-192 192s86.125 192 192 192 192-86.125 192-192-86.125-192-192-192zM874.667 170.667h-64v64c0 11.792-9.542 21.333-21.333 21.333s-21.333-9.542-21.333-21.333v-64h-64c-11.792 0-21.333-9.542-21.333-21.333s9.542-21.333 21.333-21.333h64v-64c0-11.792 9.542-21.333 21.333-21.333s21.333 9.542 21.333 21.333v64h64c11.792 0 21.333 9.542 21.333 21.333s-9.542 21.333-21.333 21.333z" />
<glyph unicode="&#xe928;" glyph-name="Add-Event" data-tags="Add-Event" d="M938.667 330.203v437.797c0 47.062-38.292 85.333-85.333 85.333h-128v64c0 11.792-9.542 21.333-21.333 21.333s-21.333-9.542-21.333-21.333v-64h-384v64c0 11.792-9.542 21.333-21.333 21.333s-21.333-9.542-21.333-21.333v-64h-170.667c-47.042 0-85.333-38.271-85.333-85.333v-682.667c0-47.062 38.292-85.333 85.333-85.333h523.128c43.083-52.086 108.172-85.333 180.872-85.333 129.375 0 234.667 105.271 234.667 234.667 0 72.708-33.253 137.794-85.333 180.87zM85.333 810.667h170.667v-42.667c-23.542 0-42.667-19.146-42.667-42.667s19.125-42.667 42.667-42.667 42.667 19.146 42.667 42.667v85.333h384v-42.667c-23.542 0-42.667-19.146-42.667-42.667s19.125-42.667 42.667-42.667 42.667 19.146 42.667 42.667v85.333h128c23.542 0 42.667-19.146 42.667-42.667v-128h-853.333v128c0 23.521 19.125 42.667 42.667 42.667zM85.333 42.667c-23.542 0-42.667 19.146-42.667 42.667v512h853.333v-239.242c-32.047 16.445-68.242 25.909-106.667 25.909-129.375 0-234.667-105.271-234.667-234.667 0-38.424 9.466-74.62 25.909-106.667h-495.242zM789.333-42.666c-105.875 0-192 86.125-192 192s86.125 192 192 192 192-86.125 192-192-86.125-192-192-192zM874.667 170.667h-64v64c0 11.792-9.542 21.333-21.333 21.333s-21.333-9.542-21.333-21.333v-64h-64c-11.792 0-21.333-9.542-21.333-21.333s9.542-21.333 21.333-21.333h64v-64c0-11.792 9.542-21.333 21.333-21.333s21.333 9.542 21.333 21.333v64h64c11.792 0 21.333 9.542 21.333 21.333s-9.542 21.333-21.333 21.333z" />
<glyph unicode="&#xe929;" glyph-name="Add-File" data-tags="Add-File" d="M725.333 374.904v371.763c0 5.667-2.25 11.083-6.25 15.083l-170.667 170.667c-4 4-9.417 6.25-15.083 6.25h-320c-47.062 0-85.333-38.271-85.333-85.333v-640c0-47.062 38.271-85.333 85.333-85.333h214.414c10.828-119.422 111.391-213.333 233.586-213.333 129.396 0 234.667 105.271 234.667 234.667 0 107.187-72.32 197.617-170.667 225.57zM554.667 865.834l97.833-97.833h-55.167c-23.521 0-42.667 19.146-42.667 42.667v55.167zM170.667 213.334v640c0 23.521 19.146 42.667 42.667 42.667h298.667v-85.333c0-47.062 38.271-85.333 85.333-85.333h85.333v-342.414c-7.036 0.638-14.133 1.081-21.333 1.081-122.195 0-222.758-93.911-233.586-213.333h-214.414c-23.521 0-42.667 19.146-42.667 42.667zM661.333-42.666c-105.875 0-192 86.125-192 192s86.125 192 192 192 192-86.125 192-192-86.125-192-192-192zM746.667 170.667h-64v64c0 11.792-9.542 21.333-21.333 21.333s-21.333-9.542-21.333-21.333v-64h-64c-11.792 0-21.333-9.542-21.333-21.333s9.542-21.333 21.333-21.333h64v-64c0-11.792 9.542-21.333 21.333-21.333s21.333 9.542 21.333 21.333v64h64c11.792 0 21.333 9.542 21.333 21.333s-9.542 21.333-21.333 21.333z" />
<glyph unicode="&#xe92a;" glyph-name="Add-Folder" data-tags="Add-Folder" d="M938.667 372.878v352.456c0 47.062-38.271 85.333-85.333 85.333h-396.5l-79.083 79.083c-4 4-9.417 6.25-15.083 6.25h-277.333c-47.062 0-85.333-38.271-85.333-85.333v-597.333c0-47.062 38.271-85.333 85.333-85.333h478.43c27.953-98.346 118.383-170.667 225.57-170.667 129.396 0 234.667 105.271 234.667 234.667 0 72.714-33.247 137.799-85.333 180.878zM85.333 170.667c-23.521 0-42.667 19.146-42.667 42.667v597.333c0 23.521 19.146 42.667 42.667 42.667h268.5l79.083-79.083c4-4 9.417-6.25 15.083-6.25h405.333c23.521 0 42.667-19.146 42.667-42.667v-324.573c-32.047 16.44-68.242 25.906-106.667 25.906-129.396 0-234.667-105.271-234.667-234.667 0-7.201 0.443-14.297 1.081-21.333h-470.414zM789.333-0c-105.875 0-192 86.125-192 192s86.125 192 192 192 192-86.125 192-192-86.125-192-192-192zM874.667 213.334h-64v64c0 11.792-9.542 21.333-21.333 21.333s-21.333-9.542-21.333-21.333v-64h-64c-11.792 0-21.333-9.542-21.333-21.333s9.542-21.333 21.333-21.333h64v-64c0-11.792 9.542-21.333 21.333-21.333s21.333 9.542 21.333 21.333v64h64c11.792 0 21.333 9.542 21.333 21.333s-9.542 21.333-21.333 21.333z" />
<glyph unicode="&#xe92b;" glyph-name="Add-Image" data-tags="Add-Image" d="M341.333 596.563c47.042 0 85.333 38.271 85.333 85.333s-38.292 85.333-85.333 85.333-85.333-38.271-85.333-85.333 38.292-85.333 85.333-85.333zM341.333 724.563c23.542 0 42.667-19.146 42.667-42.667s-19.125-42.667-42.667-42.667-42.667 19.146-42.667 42.667 19.125 42.667 42.667 42.667zM853.333 460.235v307.766c0 47.062-38.292 85.333-85.333 85.333h-682.667c-47.042 0-85.333-38.271-85.333-85.333v-469.333c0-47.062 38.292-85.333 85.333-85.333h470.414c10.831-119.422 111.411-213.333 233.586-213.333 129.375 0 234.667 105.271 234.667 234.667 0 107.185-72.331 197.612-170.667 225.568zM85.333 810.667h682.667c23.542 0 42.667-19.146 42.667-42.667v-299.747c-7.036 0.638-14.133 1.081-21.333 1.081-17.297 0-34.115-2.010-50.357-5.581l-190.56 190.56c-4 4-9.417 6.25-15.083 6.25h-0.042c-5.708-0.021-11.125-2.292-15.125-6.333l-186.57-188.44-60.513 60.523c-4 4-9.417 6.25-15.083 6.25s-11.083-2.25-15.083-6.25l-198.25-198.232v439.919c0 23.521 19.125 42.667 42.667 42.667zM50.443 275.526l205.557 205.536 112.125-112.146c8.333-8.333 21.833-8.333 30.167 0s8.333 21.833 0 30.167l-36.529 36.536 171.654 173.359 160.25-160.25c-75.612-33.935-130.109-106.625-137.919-192.729h-470.414c-14.813 0-27.24 8.047-34.891 19.526zM789.333 42.667c-105.875 0-192 86.125-192 192s86.125 192 192 192 192-86.125 192-192-86.125-192-192-192zM874.667 256h-64v64c0 11.792-9.542 21.333-21.333 21.333s-21.333-9.542-21.333-21.333v-64h-64c-11.792 0-21.333-9.542-21.333-21.333s9.542-21.333 21.333-21.333h64v-64c0-11.792 9.542-21.333 21.333-21.333s21.333 9.542 21.333 21.333v64h64c11.792 0 21.333 9.542 21.333 21.333s-9.542 21.333-21.333 21.333z" />
<glyph unicode="&#xe92c;" glyph-name="Add-Location" data-tags="Add-Location" d="M512 938.667c-188.208 0-341.333-153.125-341.333-341.333 0-56.521 14.125-112.542 40.958-162.229l281.708-509.437c3.75-6.792 10.917-11 18.667-11s14.917 4.208 18.666 11.021l281.75 509.604c26.792 49.458 40.917 105.5 40.917 162.042 0 188.208-153.125 341.333-341.333 341.333zM775 455.75l-263-475.667-262.958 475.5c-23.333 43.271-35.708 92.292-35.708 141.75 0 164.688 134 298.667 298.667 298.667s298.667-133.979 298.667-298.667c0-49.479-12.375-98.5-35.667-141.583zM512 832c-129.375 0-234.667-105.271-234.667-234.667s105.292-234.667 234.667-234.667 234.667 105.271 234.667 234.667-105.292 234.667-234.667 234.667zM512 405.334c-105.875 0-192 86.125-192 192s86.125 192 192 192 192-86.125 192-192-86.125-192-192-192zM597.333 618.667h-64v64c0 11.792-9.542 21.333-21.333 21.333s-21.333-9.542-21.333-21.333v-64h-64c-11.792 0-21.333-9.542-21.333-21.333s9.542-21.333 21.333-21.333h64v-64c0-11.792 9.542-21.333 21.333-21.333s21.333 9.542 21.333 21.333v64h64c11.792 0 21.333 9.542 21.333 21.333s-9.542 21.333-21.333 21.333z" />
<glyph unicode="&#xe92d;" glyph-name="Add-Mail" data-tags="Add-Mail" d="M810.667 510.92v214.414c0 47.062-38.271 85.333-85.333 85.333h-640c-47.062 0-85.333-38.271-85.333-85.333v-426.667c0-47.062 38.271-85.333 85.333-85.333h478.43c27.953-98.346 118.383-170.667 225.57-170.667 129.396 0 234.667 105.271 234.667 234.667 0 122.195-93.911 222.758-213.333 233.586zM725.333 768c0.888 0 1.633-0.453 2.508-0.508l-304.966-250.326c-10.854-6.854-26.563-5.396-33.646-1.083l-306.378 251.414c0.867 0.052 1.602 0.503 2.482 0.503h640zM85.333 256c-23.521 0-42.667 19.146-42.667 42.667v426.667c0 6.042 1.333 11.747 3.609 16.961l317.766-260.586c12.417-8.104 26.688-12.375 41.292-12.375 14.042 0 27.771 3.958 39.854 11.458 1.208 0.646 2.354 1.417 3.437 2.312l315.76 259.195c2.279-5.216 3.615-10.922 3.615-16.966v-214.414c-119.422-10.828-213.333-111.391-213.333-233.586 0-7.201 0.443-14.297 1.081-21.333h-470.414zM789.333 85.334c-105.875 0-192 86.125-192 192s86.125 192 192 192 192-86.125 192-192-86.125-192-192-192zM874.667 298.667h-64v64c0 11.792-9.542 21.333-21.333 21.333s-21.333-9.542-21.333-21.333v-64h-64c-11.792 0-21.333-9.542-21.333-21.333s9.542-21.333 21.333-21.333h64v-64c0-11.792 9.542-21.333 21.333-21.333s21.333 9.542 21.333 21.333v64h64c11.792 0 21.333 9.542 21.333 21.333s-9.542 21.333-21.333 21.333z" />
<glyph unicode="&#xe92e;" glyph-name="Add-Message" data-tags="Add-Message" d="M938.667 330.203v523.13c0 47.062-38.292 85.333-85.333 85.333h-768c-47.042 0-85.333-38.271-85.333-85.333v-832c0-8.625 5.208-16.417 13.167-19.708 2.625-1.104 5.417-1.625 8.167-1.625 5.542 0 11 2.167 15.083 6.25l207.083 207.083h320.266c-5.792-20.378-9.099-41.792-9.099-64 0-129.396 105.292-234.667 234.667-234.667s234.667 105.271 234.667 234.667c0 72.708-33.253 137.794-85.333 180.87zM234.667 256c-5.667 0-11.083-2.25-15.083-6.25l-176.917-176.917v780.5c0 23.521 19.125 42.667 42.667 42.667h768c23.542 0 42.667-19.146 42.667-42.667v-495.242c-32.047 16.445-68.242 25.909-106.667 25.909-90.956 0-169.828-52.135-208.758-128h-345.909zM789.333-42.666c-105.875 0-192 86.125-192 192s86.125 192 192 192 192-86.125 192-192-86.125-192-192-192zM874.667 170.667h-64v64c0 11.792-9.542 21.333-21.333 21.333s-21.333-9.542-21.333-21.333v-64h-64c-11.792 0-21.333-9.542-21.333-21.333s9.542-21.333 21.333-21.333h64v-64c0-11.792 9.542-21.333 21.333-21.333s21.333 9.542 21.333 21.333v64h64c11.792 0 21.333 9.542 21.333 21.333s-9.542 21.333-21.333 21.333z" />
<glyph unicode="&#xe92f;" glyph-name="Add-Music-File" data-tags="Add-Music File" d="M725.333 374.904v371.763c0 5.667-2.25 11.083-6.25 15.083l-170.667 170.667c-4 4-9.417 6.25-15.083 6.25h-320c-47.062 0-85.333-38.271-85.333-85.333v-640c0-47.062 38.271-85.333 85.333-85.333h214.414c10.828-119.422 111.391-213.333 233.586-213.333 129.396 0 234.667 105.271 234.667 234.667 0 107.187-72.32 197.617-170.667 225.57zM554.667 865.834l97.833-97.833h-55.167c-23.521 0-42.667 19.146-42.667 42.667v55.167zM170.667 213.334v640c0 23.521 19.146 42.667 42.667 42.667h298.667v-85.333c0-47.062 38.271-85.333 85.333-85.333h85.333v-342.414c-7.036 0.638-14.133 1.081-21.333 1.081-122.195 0-222.758-93.911-233.586-213.333h-214.414c-23.521 0-42.667 19.146-42.667 42.667zM661.333-42.666c-105.875 0-192 86.125-192 192s86.125 192 192 192 192-86.125 192-192-86.125-192-192-192zM746.667 170.667h-64v64c0 11.792-9.542 21.333-21.333 21.333s-21.333-9.542-21.333-21.333v-64h-64c-11.792 0-21.333-9.542-21.333-21.333s9.542-21.333 21.333-21.333h64v-64c0-11.792 9.542-21.333 21.333-21.333s21.333 9.542 21.333 21.333v64h64c11.792 0 21.333 9.542 21.333 21.333s-9.542 21.333-21.333 21.333zM554.667 635.313v-168.336c-6.63 1.424-13.695 2.357-21.333 2.357-37.083 0-64-17.938-64-42.667s26.917-42.667 64-42.667 64 17.938 64 42.667v234.667c0 6.396-2.875 12.437-7.813 16.5-4.896 4.042-11.396 5.583-17.708 4.417l-213.333-42.667c-9.958-2-17.146-10.75-17.146-20.917v-194.357c-6.63 1.424-13.695 2.357-21.333 2.357-37.083 0-64-17.938-64-42.667s26.917-42.667 64-42.667 64 17.938 64 42.667v217.187l170.667 34.125z" />
<glyph unicode="&#xe930;" glyph-name="Add-Note" data-tags="Add-Note" d="M1020.042 293.563l-173.583 578.688c-14.542 48.437-67.75 76.979-116 62.5l-220.018-65.995c-7.299 39.701-42.010 69.911-83.773 69.911-47.042 0-85.333-38.271-85.333-85.333h-256c-47.042 0-85.333-38.271-85.333-85.333v-640c0-47.062 38.292-85.333 85.333-85.333h188.688c16.794-26.167 45.646-42.667 78.104-42.667 9.125 0 18.167 1.333 26.75 3.938l117.984 35.378c39.508-74.076 117.505-124.648 207.141-124.648 129.375 0 234.667 105.271 234.667 234.667 0 7.49-0.435 14.878-1.125 22.19l20.042 6.018c39.125 11.729 66.417 48.417 66.417 89.25 0 9.167-1.333 18.208-3.958 26.771zM426.667 896c23.542 0 42.667-19.146 42.667-42.667s-19.125-42.667-42.667-42.667-42.667 19.146-42.667 42.667 19.125 42.667 42.667 42.667zM42.667 128v640c0 23.521 19.125 42.667 42.667 42.667h231.565l-165.148-49.542c-39.125-11.729-66.417-48.417-66.417-89.25 0-9.167 1.333-18.208 3.958-26.771l167.909-559.771h-171.867c-23.542 0-42.667 19.146-42.667 42.667zM704-42.666c-105.875 0-192 86.125-192 192s86.125 192 192 192 192-86.125 192-192-86.125-192-192-192zM945.333 218.417l-15.849-4.76c-28.062 98.182-118.43 170.344-225.484 170.344-129.375 0-234.667-105.271-234.667-234.667 0-24.549 3.826-48.211 10.852-70.469l-113.643-34.073c-25.833-7.813-54.917 7.646-62.833 33.875l-173.583 578.771c-1.417 4.625-2.125 9.479-2.125 14.437 0 22.125 14.792 42.021 36 48.375l213.081 63.919c14.010-10.076 31.055-16.169 49.586-16.169 7.643 0 14.919 1.336 21.974 3.232l24.276-36.398c4.125-6.167 10.875-9.5 17.75-9.5 4.083 0 8.208 1.167 11.833 3.583 9.792 6.542 12.458 19.792 5.917 29.583l-22.461 33.677c8.839 8.57 15.693 19.044 20.187 30.74l236.565 70.958c26.208 7.875 55-7.625 62.917-33.875l173.583-578.771c1.417-4.625 2.125-9.479 2.125-14.437 0-22.125-14.792-42.021-36-48.375zM789.333 170.667h-64v64c0 11.792-9.542 21.333-21.333 21.333s-21.333-9.542-21.333-21.333v-64h-64c-11.792 0-21.333-9.542-21.333-21.333s9.542-21.333 21.333-21.333h64v-64c0-11.792 9.542-21.333 21.333-21.333s21.333 9.542 21.333 21.333v64h64c11.792 0 21.333 9.542 21.333 21.333s-9.542 21.333-21.333 21.333z" />
</font>
</defs>
</svg>
